<?xml version="1.0" standalone="no"?>
<!DOCTYPE svg PUBLIC "-//W3C//DTD SVG 1.1//EN" "http://www.w3.org/Graphics/SVG/1.1/DTD/svg11.dtd" >
<svg xmlns="http://www.w3.org/2000/svg">
<metadata>Generated by IcoMoon</metadata>
<defs>
<font id="icomoon" horiz-adv-x="1024">
<font-face units-per-em="1024" ascent="960" descent="-64" />
<missing-glyph horiz-adv-x="1024" />
<glyph unicode="&#x20;" horiz-adv-x="512" d="" />
<glyph unicode="&#xe900;" glyph-name="ODSBlanco01" d="M512 960c-282.766 0-512-229.234-512-512s229.234-512 512-512 512 229.234 512 512c0 282.766-229.234 512-512 512zM779.586 506.812c13.053 0 23.613-10.56 23.613-23.686 0-13.053-10.56-23.686-23.613-23.686s-23.686 10.633-23.686 23.686c0 13.126 10.633 23.686 23.686 23.686zM690.489 382.662c10.34 0 18.626-8.286 18.626-18.626s-8.286-18.626-18.626-18.626c-10.34 0-18.626 8.36-18.626 18.626 0 10.34 8.286 18.626 18.626 18.626zM592.885 493.172c12.393 0 22.366-10.046 22.366-22.439s-9.973-22.366-22.366-22.366c-12.393 0-22.439 10.046-22.439 22.366 0.073 12.393 10.046 22.439 22.439 22.439zM455.095 817.664c11 0 19.873 0.953 26.546 2.787s12.026 4.987 15.986 9.313c3.96 4.327 7.48 10.633 10.56 18.846h26.033v-246.394h-38.719v188.022h-40.479v27.426zM458.761 493.172c12.393 0 22.366-10.046 22.366-22.439s-10.046-22.366-22.366-22.366c-12.393 0-22.366 10.046-22.366 22.366-0.073 12.393 9.973 22.439 22.366 22.439zM354.117 382.662c10.34 0 18.626-8.286 18.626-18.626s-8.286-18.626-18.626-18.626c-10.34 0-18.626 8.36-18.626 18.626 0 10.34 8.36 18.626 18.626 18.626zM257.393 506.812c13.053 0 23.686-10.56 23.686-23.686 0-13.053-10.633-23.686-23.686-23.686s-23.613 10.633-23.613 23.686c0 13.126 10.56 23.686 23.613 23.686zM188.168 232.552v0zM516.327 345.483c-9.386-2.787-12.246 8.066-12.246 8.066l-15.033 50.599c0 0-0.807 3.887-3.74 3.080s-1.833-4.987-1.833-4.987l26.106-94.818h-24.273v-67.905c0-6.453-5.207-11.66-11.66-11.66s-11.66 5.207-11.66 11.66v67.905h-6.6v-67.905c0-6.453-5.207-11.66-11.66-11.66s-11.66 5.207-11.66 11.66v67.905h-24.273l26.106 94.818c0 0 1.1 4.18-1.833 4.987s-3.74-3.080-3.74-3.080l-15.033-50.599c0 0-2.86-10.853-12.246-8.066-3.007 0.88-4.62 2.64-5.5 4.547-0.587-1.687-1.76-4.107-1.76-4.107l-17.38-31.386c0 0-1.1-2.347-1.1-4.473v-6.526l9.973-36.592h-9.973v-29.919c0-5.133-4.107-9.166-9.166-9.166s-9.166 4.107-9.166 9.166v28.819c0 0 0 0.513 0 1.1h-5.573c-0.073-0.587 0-1.1 0-1.1v-28.819c0-5.133-4.107-9.166-9.166-9.166s-9.166 4.107-9.166 9.166v0 29.919h-9.9l9.9 36.446v6.673c0 2.127-1.173 4.473-1.173 4.473l-18.773 34.026c0 0-0.147 0.44-0.293 0.953-1.467-3.080-4.547-5.28-8.213-5.28-5.060 0-9.166 4.107-9.166 9.166v56.319c0 2.127-0.587 4.987-4.473 4.987-2.64 0-3.227-2.86-3.3-4.62v-168.809c0-7.26-5.867-13.2-13.2-13.2-7.26 0-13.126 5.94-13.126 13.2v97.237c0 1.1-0.44 3.887-3.813 3.887v0c-3.373 0-3.667-2.787-3.74-3.887v-97.237c0-7.26-5.867-13.2-13.2-13.2s-13.126 5.94-13.126 13.2v168.809c-0.147 1.833-0.66 4.62-3.373 4.62-3.887 0-4.473-2.86-4.473-4.987v-56.319c0-5.060-4.107-9.166-9.166-9.166s-9.166 4.107-9.166 9.166v65.558c0 16.5 12.613 29.919 28.599 31.386 0.587 0.073 1.1 0.147 1.833 0.147h51.699c0.66 0 1.173-0.073 1.76-0.147 16.060-1.467 28.673-14.96 28.673-31.386v-63.652c1.247 1.76 3.153 3.007 5.5 3.007 2.42 0 4.547-1.247 5.72-3.153h0.073c0.513-0.44 9.24-15.986 12.1-18.846 3.007-3.080 5.793-2.713 5.793-2.713h22.586c0 0 2.713-0.293 5.72 2.713 2.86 2.86 11.586 18.333 12.1 18.846h0.073c1.173 1.907 3.3 3.153 5.72 3.153 2.2 0 4.033-1.1 5.28-2.713 0.073 2.127 0.587 3.74 0.587 3.74l18.626 60.645c0 0 6.673 17.526 21.413 17.526h47.445c14.74 0 21.339-17.526 21.339-17.526l18.626-60.645c-0.073 0.073 3.227-11.073-6.233-13.86zM619.504 307.424v-67.905c0-6.453-5.207-11.66-11.66-11.66s-11.66 5.207-11.66 11.66v67.905h-6.6v-67.905c0-6.453-5.207-11.66-11.66-11.66s-11.66 5.207-11.66 11.66v67.905h-24.346l26.106 94.818c0 0 1.1 4.18-1.833 4.987s-3.74-3.080-3.74-3.080l-15.033-50.599c0 0-2.86-10.853-12.246-8.066-9.46 2.787-6.087 13.86-6.087 13.86l18.626 60.645c0 0 6.673 17.526 21.413 17.526h47.445c14.74 0 21.413-17.526 21.413-17.526l18.626-60.645c0 0 3.3-11.146-6.087-13.86-9.386-2.787-12.246 8.066-12.246 8.066l-14.96 50.599c0 0-0.807 3.887-3.74 3.080s-1.833-4.987-1.833-4.987l26.106-94.818h-24.346zM735.368 285.498c-1.54-3.593-5.647-5.353-9.24-3.813-1.027 0.44-4.547 10.34-4.547 10.34l-7.92 22.146c0 0-1.173 1.613-1.173-0.66v-76.118c0-5.28-4.327-9.606-9.606-9.606s-9.606 4.253-9.606 9.606v29.993c0 0 0.513 4.253-2.933 4.253s-2.86-4.253-2.86-4.253v-29.993c0-5.28-4.253-9.606-9.533-9.606s-9.606 4.253-9.606 9.606h-0.073v76.118c0 2.2-1.76 0.073-1.76 0.073l-10.12-32.339c0 0-2.86-4.987-7.993-2.567-4.4 1.98-3.667 6.6-2.713 8.8h-0.073c0.073 0.733 5.207 13.64 6.746 17.6 10.706 27.573 13.786 32.559 23.466 32.852 9.753 0.293 14.446 0.073 14.446 0.073s4.4 0.147 11.806 0c7.406-0.22 15.033-0.073 19.213-12.393 1.393-4.033 12.98-32.559 13.273-33.292l-0.073-0.073c1.467-1.833 1.833-4.4 0.88-6.746zM835.832 411.114v-57.712c0-5.060-4.107-9.166-9.166-9.166s-9.166 4.107-9.166 9.166v56.319c0 2.127-0.587 4.987-4.473 4.987-2.64 0-3.227-2.86-3.3-4.62v-168.809c0-7.26-5.867-13.2-13.2-13.2-7.26 0-13.2 5.94-13.2 13.2v97.237c0 1.1-0.367 3.887-3.74 3.887v0c-3.373 0-3.74-2.787-3.813-3.887v-97.237c0-7.26-5.867-13.2-13.126-13.2-7.333 0-13.2 5.94-13.2 13.2v168.809c-0.073 1.833-0.66 4.62-3.3 4.62-3.887 0-4.473-2.86-4.473-4.987v-56.319c0-5.060-4.107-9.166-9.166-9.166s-9.166 4.107-9.166 9.166v65.558c0 16.5 12.613 29.919 28.673 31.386 0.513 0.073 1.1 0.147 1.76 0.147h51.699c0.66 0 1.247-0.073 1.833-0.147 16.060-1.467 28.599-14.96 28.599-31.386v-7.846z" />
<glyph unicode="&#xe901;" glyph-name="ODSBlanco02" d="M512 960c-282.766 0-512-229.234-512-512s229.234-512 512-512c282.766 0 512 229.234 512 512s-229.234 512-512 512zM609.677 547.217c6.673-3.447 8.873-10.853 4.84-16.573-0.513-0.807-34.979-51.112-0.953-88.364 24.053-26.326 26.546-51.845 20.533-72.305h-29.626c6.013 13.786 7.92 34.246-13.273 57.492-46.199 50.525-2.787 113.004-0.953 115.644 4.033 5.647 12.686 7.48 19.433 4.107zM461.988 628.982c0 17.6 2.787 32.706 8.433 45.245s15.693 26.473 30.286 41.726c14.3 15.253 24.199 28.306 29.773 39.086 5.5 10.78 8.286 22.073 8.286 33.806 0 10.56-1.687 17.893-5.133 21.999-3.373 4.107-8.36 6.16-14.96 6.16-13.346 0-20.093-8.066-20.093-24.273v-26.399h-36.592v23.906c0 19.946 4.913 35.272 14.813 45.905 9.826 10.706 24.199 15.986 42.972 15.986s33.072-5.353 42.972-15.986c9.826-10.706 14.813-25.959 14.813-45.905 0-15.033-3.593-29.699-10.706-43.999-7.186-14.3-19.506-30.726-37.106-49.279-11.513-12.173-19.213-22.146-23.246-29.773-3.96-7.626-6.013-15.766-6.013-24.493v-5.28h73.551v-35.199h-112.050v26.766zM501.807 427.467c-46.272 50.525-2.787 113.004-0.953 115.644 4.033 5.72 12.76 7.553 19.506 4.107s8.873-10.853 4.84-16.573c-0.587-0.807-34.979-51.112-0.953-88.364 24.053-26.326 26.546-51.845 20.533-72.305h-29.626c5.94 13.786 7.846 34.319-13.346 57.492zM411.463 543.111c4.107 5.72 12.833 7.553 19.506 4.107 6.746-3.447 8.873-10.853 4.84-16.573-0.513-0.807-35.052-51.112-0.953-88.364 24.126-26.326 26.546-51.919 20.606-72.305h-29.626c6.013 13.786 7.846 34.246-13.346 57.492-46.345 50.525-2.933 113.004-1.027 115.644zM742.187 344.896c0-0.147-0.073-0.293-0.073-0.44-13.053-78.391-72.525-142.703-151.869-168.662v-13.566c0 0 0-0.073 0-0.073s0 0 0-0.073c0-3.080-2.493-5.573-5.573-5.647-0.073 0-0.073 0-0.147 0 0 0-0.073 0-0.147 0h-140.796c-0.073 0-0.073 0-0.147 0s-0.073 0-0.147 0c-3.007 0.073-5.427 2.42-5.573 5.427 0 0.073 0 0.147 0 0.293 0 0.073 0 0.22 0 0.293v12.026c-80.958 24.933-142.043 89.611-155.756 168.736l-0.293 2.567c0 3.153 2.567 5.72 5.72 5.72h449.228c3.153 0 5.72-2.567 5.72-5.72-0.073-0.367-0.073-0.587-0.147-0.88z" />
<glyph unicode="&#xe902;" glyph-name="ODSBlanco03" d="M512 960c-282.766 0-512-229.234-512-512s229.234-512 512-512 512 229.234 512 512c0 282.766-229.234 512-512 512zM437.202 680.021h36.592v-21.853c0-16.206 6.673-24.273 20.093-24.273 6.6 0 11.586 2.053 14.96 6.16s5.133 11.293 5.133 21.633v20.093c0 11.293-1.98 19.286-6.013 24.126-3.96 4.84-10.413 7.186-19.359 7.186h-13.053v35.199h14.080c7.773 0 13.566 1.98 17.453 6.013 3.887 3.96 5.793 10.706 5.793 20.093v17.966c0 8.433-1.76 14.666-5.28 18.626s-8.213 6.013-14.080 6.013c-12.466 0-18.626-7.626-18.626-22.879v-16.206h-36.592v13.053c0 19.726 4.84 34.832 14.593 45.392s23.759 15.84 42.092 15.84c18.553 0 32.632-5.207 42.239-15.693 9.606-10.413 14.446-25.519 14.446-45.245v-8.8c0-13.346-2.2-24.126-6.673-32.192s-11.366-13.933-20.753-17.453v-0.733c10.12-3.74 17.38-9.826 21.853-18.333 4.473-8.433 6.673-19.213 6.673-32.412v-21.853c0-19.726-4.913-34.832-14.593-45.245-9.753-10.413-24.126-15.693-43.119-15.693s-33.366 5.28-43.119 15.84c-9.753 10.56-14.593 25.666-14.593 45.392v20.239zM543.459 154.601c-0.22 0-0.44 0-0.587 0-4.547 0.293-8.286 3.667-9.093 8.14l-30.433 177.169-46.125-85.358c-2.053-3.74-6.233-5.72-10.34-4.987-4.18 0.733-7.406 4.107-7.993 8.286l-19.579 136.763-35.786-80.445c-1.54-3.52-5.060-5.867-9.020-5.867h-139.11c-5.427 0-9.826 4.4-9.826 9.826s4.4 9.826 9.826 9.826h132.73l47.079 105.744c1.76 3.96 6.013 6.38 10.34 5.72 4.327-0.587 7.773-4.033 8.36-8.36l20.166-141.016 45.465 84.258c1.98 3.667 6.087 5.72 10.266 5.060s7.406-3.887 8.066-8.066l28.159-164.116 102.664 341.064c1.173 3.887 4.62 6.673 8.653 6.966s7.846-1.907 9.606-5.5l54.045-111.977c2.347-4.913 0.293-10.78-4.62-13.126s-10.78-0.293-13.126 4.62l-43.046 89.244-107.431-356.831c-1.173-4.18-4.987-7.040-9.313-7.040zM786.040 312.484l-59.838-59.912-59.912 59.985c-7.626 7.846-12.393 18.773-12.393 30.799 0 24.053 16.353 43.559 39.746 43.559 11.66 0 24.859-12.833 32.486-20.679 7.626 7.846 21.779 20.679 33.439 20.679 23.393 0 38.792-19.506 38.792-43.559 0.073-12.026-4.693-22.953-12.32-30.873v0z" />
<glyph unicode="&#xe903;" glyph-name="ODSBlanco04" d="M504.154 778.285h-0.733l-37.986-96.137h38.719zM512 960c-282.766 0-512-229.234-512-512s229.234-512 512-512c282.766 0 512 229.234 512 512s-229.234 512-512 512zM430.235 682.147l70.398 166.462h42.239v-166.462h18.333v-35.199h-18.333v-44.732h-38.719v44.732h-73.918v35.199zM630.357 536.878v-286.213l-154.216-46.345v243.46l154.216 89.098zM306.085 536.878l153.263-88.438v-243.974l-153.263 46.272v286.139zM663.283 231.086l-15.106-4.4-170.789-54.265h-18.846l-185.162 51.259v300.879l16.426 12.98v-302.345l169.542-47.372h17.306l170.276 54.999v294.719l16.426-12.98v-293.472zM750.62 255.725l-18.113-63.358-18.113 63.358v254.68h36.226v-254.68zM750.62 524.558h-36.226v19.506c0 10.046 8.066 18.113 18.113 18.113 9.973 0 18.113-8.14 18.113-18.113v-19.506z" />
<glyph unicode="&#xe904;" glyph-name="ODSBlanco05" d="M512 960c-282.766 0-512-229.234-512-512s229.234-512 512-512 512 229.234 512 512c0 282.766-229.234 512-512 512zM467.048 680.021h36.592v-22.146c0-15.986 6.673-23.906 20.093-23.906s20.093 7.993 20.093 23.906v55.292c0 16.206-6.673 24.273-20.093 24.273s-20.093-8.066-20.093-24.273v-2.127h-36.592l7.040 137.643h102.077v-35.199h-67.612l-3.153-58.812h0.733c7.26 11.953 18.406 17.966 33.439 17.966 14.080 0 24.786-4.84 32.046-14.446s10.926-23.613 10.926-41.872v-55.585c0-19.946-4.913-35.272-14.813-45.905-9.826-10.706-24.199-15.986-42.972-15.986s-33.072 5.353-42.972 15.986c-9.826 10.706-14.813 25.959-14.813 45.905v19.286zM680.516 428.494c0-0.733-0.66-1.32-1.393-1.32h-35.272c-0.733 0-1.393 0.587-1.393 1.32v39.526l-46.272-46.272c15.986-22.659 25.373-50.232 25.373-80.005 0-69.005-50.525-126.423-116.524-137.203v-41.286h41.872c0.733 0 1.393-0.587 1.393-1.32v-37.912c0-0.733-0.587-1.32-1.393-1.32h-41.872v-40.039c0-0.733-0.66-1.32-1.393-1.32h-37.839c-0.733 0-1.32 0.587-1.32 1.32v40.039h-41.872c-0.807 0-1.393 0.587-1.393 1.32v37.839c0 0.733 0.587 1.32 1.393 1.32h41.872v40.626c-68.198 8.873-121.144 67.245-121.144 137.863 0 76.705 62.405 139.11 139.11 139.11 32.339 0 62.112-11.146 85.724-29.699l46.932 46.932h-42.312c-0.733 0-1.32 0.587-1.32 1.32v35.346c0 0.733 0.587 1.32 1.32 1.32h106.184c0.733 0 1.393-0.587 1.393-1.32v-106.184zM482.594 444.113c-56.465 0-102.371-45.905-102.371-102.371s45.905-102.371 102.371-102.371 102.371 45.905 102.371 102.371c0 56.392-45.979 102.371-102.371 102.371zM546.466 298.771c0-0.66-0.587-1.247-1.393-1.247h-124.15c-0.733 0-1.32 0.513-1.32 1.247v30.066c0 0.66 0.587 1.247 1.32 1.247h124.15c0.733 0 1.393-0.587 1.393-1.247v-30.066zM546.466 352.449c0-0.733-0.587-1.247-1.393-1.247h-124.15c-0.733 0-1.32 0.513-1.32 1.247v30.066c0 0.66 0.587 1.173 1.32 1.173h124.15c0.733 0 1.393-0.587 1.393-1.173v-30.066z" />
<glyph unicode="&#xe905;" glyph-name="ODSBlanco06" d="M496.527 633.968c13.346 0 20.093 7.993 20.093 23.906v43.632c0 16.206-6.673 24.273-20.093 24.273s-20.093-8.066-20.093-24.273v-43.632c0.073-15.986 6.746-23.906 20.093-23.906zM513.1 424.534v0.367l-0.147-0.147-0.147 0.147v-0.367c-3.080-4.547-38.719-58.152-43.706-67.465-8.066-14.886-16.353-43.779 6.82-66.952 0 0 14.080-14.446 37.032-12.906 22.879-1.54 36.959 12.906 36.959 12.906 23.173 23.173 14.96 52.065 6.82 66.952-4.913 9.313-40.626 62.918-43.632 67.465zM512 960c-282.766 0-512-229.234-512-512s229.234-512 512-512 512 229.234 512 512c0 282.766-229.234 512-512 512zM437.789 788.111c0 42.679 19.726 64.092 59.105 64.092 18.773 0 33.072-5.353 42.972-15.986 9.826-10.706 14.813-25.959 14.813-45.905v-4.547h-36.592v7.040c0 16.206-6.673 24.273-20.093 24.273-7.26 0-12.686-2.2-16.206-6.673s-5.28-12.32-5.28-23.613v-47.152h0.733c6.82 14.3 18.553 21.486 35.199 21.486 14.080 0 24.786-4.84 32.046-14.446s10.926-23.613 10.926-41.872v-43.999c0-19.726-5.060-34.979-15.106-45.759-10.12-10.78-24.639-16.206-43.632-16.206s-33.586 5.427-43.632 16.206-15.106 26.033-15.106 45.759v127.303zM621.85 224.412c-0.293-1.833-1.76-3.080-3.593-3.080h-65.045l-4.327-51.185h26.913l-62.698-62.698-62.625 62.552h26.913l-4.327 51.259h-63.945c-1.76 0-3.3 1.32-3.593 3.007l-52.065 314.958c-0.147 0.953 0.073 2.053 0.733 2.933 0.733 0.807 1.687 1.247 2.787 1.247h309.972c1.1 0 2.053-0.44 2.787-1.247 0.66-0.807 0.953-1.833 0.807-2.933l-48.692-314.812zM379.197 467.213c21.119-0.147 38.572 6.233 57.272 12.98 28.159 10.193 51.992-6.526 77.511-14.52 40.479-12.686 66.658-7.040 105.084 8.506 10.193 4.107 20.899 5.5 29.259 1.76l8.8 53.825h-290.172l12.246-62.552z" />
<glyph unicode="&#xe906;" glyph-name="ODSBlanco07" d="M512 261.812c36.006 0 65.118 29.186 65.118 65.118 0 29.259-19.286 54.045-45.905 62.258v-24.199c13.86-7.040 23.393-21.413 23.393-37.986 0-23.539-19.066-42.606-42.606-42.606s-42.679 18.993-42.679 42.532c0 16.573 9.46 30.873 23.319 37.986v24.273c-26.546-8.213-45.759-32.999-45.759-62.185 0-36.079 29.113-65.192 65.118-65.192zM512 960c-282.766 0-512-229.234-512-512s229.234-512 512-512 512 229.234 512 512c0 282.766-229.234 512-512 512zM639.817 412.434l47.519 27.353c4.033 2.347 10.706 0.807 13.566-4.107s0.733-11.44-3.3-13.713l-47.519-27.353c-3.96-2.273-10.633-0.807-13.42 4.107-2.86 4.913-0.807 11.44 3.153 13.713zM512 451.153c69.152 0 125.177-56.025 125.177-125.25s-56.099-125.25-125.177-125.25c-69.152 0-125.177 56.025-125.177 125.25-0.073 69.225 56.025 125.25 125.177 125.25zM501.66 480.412v54.852c0 4.62 4.62 9.68 10.34 9.68 5.647 0 10.266-5.060 10.266-9.68v-54.852c0-4.62-4.62-9.606-10.266-9.606s-10.34 4.987-10.34 9.606zM579.245 465.306l27.206 47.592c2.273 4.033 8.873 6.16 13.786 3.3 4.913-2.787 6.38-9.533 4.107-13.493l-27.206-47.592c-2.273-3.96-8.8-6.087-13.713-3.227-4.913 2.713-6.453 9.386-4.18 13.42zM429.722 848.683h116.157v-33.806l-60.572-212.588h-39.452l61.965 211.195h-78.098v35.199zM403.396 515.978c4.913 2.86 11.44 0.733 13.713-3.3l27.353-47.519c2.273-3.96 0.807-10.633-4.107-13.493s-11.44-0.807-13.713 3.227l-27.353 47.519c-2.347 3.96-0.88 10.706 4.107 13.566zM322.878 435.314c2.787 4.913 9.533 6.38 13.493 4.107l47.592-27.206c3.96-2.273 6.087-8.8 3.227-13.713-2.787-4.913-9.46-6.453-13.493-4.18l-47.592 27.206c-3.96 2.273-6.087 8.8-3.227 13.786zM294.059 327.076c0 5.647 5.060 10.266 9.68 10.266h54.852c4.62 0 9.606-4.62 9.606-10.266 0-5.72-5.060-10.34-9.606-10.34h-54.852c-4.62 0-9.68 4.62-9.68 10.34zM384.11 241.572l-47.519-27.353c-3.96-2.273-10.633-0.807-13.42 4.107-2.86 4.913-0.807 11.44 3.227 13.713l47.519 27.353c4.033 2.273 10.706 0.807 13.566-4.107 2.713-4.84 0.587-11.366-3.373-13.713zM444.682 188.7l-27.206-47.592c-2.273-3.96-8.8-6.087-13.713-3.227-4.913 2.787-6.453 9.46-4.18 13.493l27.206 47.592c2.273 4.033 8.873 6.087 13.786 3.3 4.987-2.86 6.453-9.533 4.107-13.566zM522.266 118.742c0-4.62-4.62-9.606-10.266-9.606s-10.34 5.060-10.34 9.606v54.852c0 4.62 4.62 9.68 10.34 9.68 5.647 0 10.266-5.060 10.266-9.68v-54.852zM620.677 138.101c-4.913-2.86-11.44-0.807-13.713 3.227l-27.353 47.519c-2.347 4.033-0.807 10.706 4.107 13.566 4.913 2.787 11.44 0.733 13.786-3.3l27.353-47.519c2.2-3.96 0.733-10.633-4.18-13.493zM701.122 218.766c-2.86-4.913-9.46-6.453-13.493-4.18l-47.592 27.206c-4.033 2.273-6.087 8.8-3.3 13.786 2.787 4.913 9.533 6.38 13.493 4.107l47.592-27.206c4.033-2.273 6.16-8.726 3.3-13.713zM720.335 316.737h-54.852c-4.62 0-9.68 4.62-9.68 10.34 0 5.647 5.060 10.266 9.68 10.266h54.852c4.62 0 9.606-4.62 9.606-10.266 0-5.72-5.060-10.34-9.606-10.34zM512 350.029c5.133 0 9.313 4.547 9.313 8.726v42.972c0 4.18-4.18 8.726-9.313 8.726s-9.313-4.62-9.313-8.726v-43.046c0-4.107 4.18-8.653 9.313-8.653z" />
<glyph unicode="&#xe907;" glyph-name="ODSBlanco08" d="M495.5 748.366c13.64 0 20.386 8.213 20.386 24.639v19.359c0 16.426-6.82 24.639-20.386 24.639s-20.386-8.213-20.386-24.639v-19.359c0-16.426 6.746-24.639 20.386-24.639zM495.5 633.968c14.52 0 21.853 9.24 21.853 27.793v23.613c0 18.553-7.26 27.793-21.853 27.793s-21.853-9.24-21.853-27.793v-23.613c0-18.553 7.333-27.793 21.853-27.793zM512 960c-282.766 0-512-229.234-512-512s229.234-512 512-512 512 229.234 512 512c0 282.766-229.234 512-512 512zM434.929 681.487c0 12.173 1.98 22.439 6.013 30.799 3.96 8.36 10.413 14.813 19.359 19.506v0.733c-8.213 4.473-14.226 10.633-18.113 18.48s-5.793 17.893-5.793 30.066v10.193c0 19.726 5.133 34.759 15.326 45.245 10.193 10.413 24.786 15.693 43.852 15.693 18.993 0 33.586-5.207 43.852-15.693 10.193-10.413 15.326-25.519 15.326-45.245v-10.193c0-23.466-7.993-39.672-23.906-48.545v-0.733c8.946-4.693 15.326-11.22 19.359-19.506 3.96-8.36 6.013-18.626 6.013-30.799v-21.853c0-19.726-5.207-34.832-15.693-45.245-10.413-10.413-25.373-15.693-44.879-15.693s-34.466 5.207-44.879 15.693c-10.413 10.413-15.693 25.519-15.693 45.245v21.853zM442.555 147.121c0-2.493-1.98-4.473-4.473-4.473h-81.471c-2.493 0-4.473 1.98-4.473 4.473v112.49c0 6.087 1.54 8.286 4.473 11.22l78.831 75.018c5.133 5.133 7.113 0.587 7.113-1.907v-196.822zM557.025 147.121c0-2.493-1.98-4.473-4.473-4.473h-81.471c-2.493 0-4.473 1.98-4.473 4.473v181.129c0 2.493 1.393 7.626 7.7 1.247l34.539-35.199c0.66-0.66 1.76-0.66 2.42-0.073l38.132 38.499c5.573 5.573 7.553 1.027 7.553-1.393v-184.209zM669.663 147.121c0-2.493-1.98-4.473-4.473-4.473h-81.398c-2.493 0-4.473 1.98-4.473 4.473v210.168c0 6.087 1.54 8.286 4.473 11.293l78.831 75.018c5.133 5.133 7.113 0.587 7.113-1.907v-294.572zM698.408 533.798l-13.273-61.598v-0.22c0-0.513-0.22-1.027-0.66-1.467-0.88-0.88-2.347-0.88-3.227 0l-14.446 14.446-155.243-155.169c-0.733-0.733-1.833-0.733-2.567 0l-17.16 17.16c-0.073 0.073-0.073 0.147-0.147 0.22l-45.832 45.832-100.024-100.024c-0.733-0.733-1.833-0.733-2.567 0l-17.16 17.16c-0.733 0.733-0.733 1.833 0 2.567l101.271 101.271c0 0 0 0 0 0l17.16 17.16c0.733 0.733 1.833 0.733 2.567 0l63.212-63.212 136.763 136.763-14.446 14.446c-0.88 0.88-0.88 2.347 0 3.227 0.293 0.293 0.733 0.513 1.173 0.587l1.1 0.147 60.352 13.64h1.1c0.513-0.073 1.027-0.22 1.467-0.66 0.513-0.44 0.66-1.1 0.66-1.687l-0.073-0.587z" />
<glyph unicode="&#xe908;" glyph-name="ODSBlanco09" d="M487.141 725.119c13.346 0 20.093 8.066 20.093 24.273v43.632c0 15.986-6.673 23.906-20.093 23.906s-20.093-7.993-20.093-23.906v-43.632c0-16.206 6.673-24.273 20.093-24.273zM505.693 178.947v88.731l-76.851-44.366zM422.536 433.554v-88.731l76.851 44.366zM422.536 123.655l76.851 44.292-76.851 44.366zM505.693 289.531v88.731l-76.851-44.366zM326.765 171.614l83.158-47.959v95.991l-83.158 48.032zM614.077 123.655l83.158 47.959v96.064l-83.158-48.032zM607.771 326.563l-83.158-47.959 83.158-48.032 83.158 48.032zM601.464 433.554l-76.851-44.366 76.851-44.366zM512 960c-282.766 0-512-229.234-512-512s229.234-512 512-512 512 229.234 512 512c0 282.766-229.234 512-512 512zM428.329 790.238c0 19.726 5.060 34.979 15.106 45.759 10.12 10.78 24.639 16.206 43.632 16.206s33.586-5.427 43.632-16.206c10.12-10.78 15.106-26.033 15.106-45.759v-127.45c0-42.679-19.726-64.092-59.105-64.092-18.773 0-33.072 5.353-42.972 15.986-9.826 10.706-14.813 25.959-14.813 45.905v4.547h36.592v-7.040c0-16.206 6.673-24.273 20.093-24.273 7.26 0 12.686 2.2 16.206 6.673s5.28 12.32 5.28 23.613v47.299h-0.733c-6.82-14.3-18.553-21.486-35.199-21.486-14.080 0-24.786 4.84-32.046 14.446s-10.926 23.613-10.926 41.872v43.999zM709.848 167.947c0-2.273-1.173-4.327-3.153-5.5l-95.771-55.292c-0.953-0.587-2.053-0.88-3.153-0.88s-2.2 0.293-3.153 0.88l-92.618 53.532-92.618-53.459c-0.953-0.587-2.053-0.88-3.153-0.88s-2.2 0.293-3.153 0.88l-95.771 55.292c-1.98 1.1-3.153 3.227-3.153 5.5v110.584c0 2.273 1.173 4.327 3.153 5.5l92.618 53.459v106.917c0 2.273 1.173 4.327 3.153 5.5l95.771 55.292c1.98 1.1 4.327 1.1 6.307 0l95.771-55.292c1.98-1.1 3.153-3.227 3.153-5.5v-106.991l92.618-53.459c1.98-1.1 3.153-3.227 3.153-5.5v-110.584zM518.307 378.262v-88.731l76.851 44.366z" />
<glyph unicode="&#xe909;" glyph-name="ODSBlanco10" d="M565.899 817.004c-13.346 0-20.093-8.066-20.093-24.273v-134.49c0-16.206 6.673-24.273 20.093-24.273 13.346 0 20.093 8.066 20.093 24.273v134.416c0 16.206-6.746 24.346-20.093 24.346zM512 960c-282.766 0-512-229.234-512-512s229.234-512 512-512 512 229.234 512 512c0 282.766-229.234 512-512 512zM366.95 228.299c0-1.173-1.393-1.76-2.2-0.953l-75.531 75.531c-0.513 0.513-0.513 1.32 0 1.833l75.458 75.458c0.807 0.807 2.2 0.22 2.2-0.953v-150.916zM382.863 790.238v27.426c11 0 19.873 0.953 26.546 2.787s12.026 4.987 15.986 9.313c3.96 4.327 7.48 10.633 10.56 18.846h26.033v-246.394h-38.719v188.022h-40.406zM511.047 526.538c0.513 0.513 1.32 0.513 1.833 0l75.531-75.458c0.807-0.807 0.22-2.2-0.953-2.2h-150.916c-1.173 0-1.76 1.393-0.953 2.2l75.458 75.458zM588.411 156.508l-75.458-75.458c-0.513-0.513-1.32-0.513-1.833 0l-75.531 75.458c-0.807 0.807-0.22 2.2 0.953 2.2h150.989c1.1 0.073 1.687-1.393 0.88-2.2zM592.371 229.912c0-1.1-0.733-1.907-1.687-1.907h-157.296c-0.953 0-1.687 0.807-1.687 1.907v47.225c0 1.027 0.733 1.907 1.687 1.907h157.223c0.953 0 1.687-0.88 1.687-1.907v-47.225zM592.371 330.45c0-1.1-0.733-1.907-1.687-1.907h-157.296c-0.953 0-1.687 0.88-1.687 1.907v47.225c0 1.027 0.733 1.907 1.687 1.907h157.223c0.953 0 1.687-0.88 1.687-1.907v-47.225zM624.71 660.661c0-19.726-5.060-34.979-15.106-45.759s-24.639-16.206-43.632-16.206c-18.993 0-33.586 5.427-43.632 16.206-10.12 10.78-15.106 26.033-15.106 45.759v129.577c0 19.726 5.060 34.979 15.106 45.759 10.12 10.78 24.639 16.206 43.632 16.206s33.586-5.427 43.632-16.206c10.12-10.78 15.106-26.033 15.106-45.759v-129.577zM734.781 302.877l-75.531-75.458c-0.807-0.807-2.2-0.22-2.2 0.953v150.916c0 1.173 1.393 1.76 2.2 0.953l75.458-75.458c0.513-0.587 0.513-1.393 0.073-1.907z" />
<glyph unicode="&#xe90a;" glyph-name="ODSBlanco11" d="M485.087 315.417h-26.326c-0.807 0-1.467-0.66-1.467-1.54v-29.333c0-0.807 0.66-1.54 1.467-1.54h26.326c0.807 0 1.54 0.66 1.54 1.54v29.333c0 0.807-0.66 1.54-1.54 1.54zM485.087 450.053h-26.326c-0.807 0-1.467-0.66-1.467-1.54v-29.333c0-0.807 0.66-1.54 1.467-1.54h26.326c0.807 0 1.54 0.66 1.54 1.54v29.333c0 0.88-0.66 1.54-1.54 1.54zM573.965 175.060h-34.246c-1.54 0-2.787-1.247-2.787-2.787v-21.413c0-1.54 1.247-2.787 2.787-2.787h34.246c1.54 0 2.787 1.247 2.787 2.787v21.413c0 1.54-1.247 2.787-2.787 2.787zM573.965 214.733h-34.246c-1.54 0-2.787-1.247-2.787-2.787v-21.413c0-1.54 1.247-2.787 2.787-2.787h34.246c1.54 0 2.787 1.247 2.787 2.787v21.413c0 1.54-1.247 2.787-2.787 2.787zM597.138 346.363c0.073 0 0.073 0 0.147 0s0.073 0 0.147 0h28.233c0.073 0 0.073 0 0.147 0s0.073 0 0.147 0c1.76 0.073 3.080 1.467 3.080 3.227v36.226c-0.293 1.467-1.54 2.64-3.153 2.64-1.027 0-1.907-0.44-2.493-1.173l-0.807-1.027c-6.38-7.773-19.359-23.833-27.133-33.732l-0.807-1.027c-0.44-0.513-0.66-1.173-0.66-1.98 0.073-1.687 1.393-3.080 3.153-3.153zM485.087 248.025h-26.326c-0.807 0-1.467-0.66-1.467-1.54v-29.333c0-0.88 0.66-1.54 1.467-1.54h26.326c0.807 0 1.54 0.66 1.54 1.54v29.333c0 0.88-0.66 1.54-1.54 1.54zM433.535 248.025h-26.326c-0.807 0-1.54-0.66-1.54-1.54v-29.333c0-0.88 0.66-1.54 1.54-1.54h26.326c0.807 0 1.54 0.66 1.54 1.54v29.333c-0.073 0.88-0.733 1.54-1.54 1.54zM573.965 254.332h-34.246c-1.54 0-2.787-1.247-2.787-2.787v-21.486c0-1.54 1.247-2.787 2.787-2.787h34.246c1.54 0 2.787 1.247 2.787 2.787v21.486c0 1.54-1.247 2.787-2.787 2.787zM433.535 180.634h-26.326c-0.807 0-1.54-0.66-1.54-1.467v-29.333c0-0.88 0.66-1.54 1.54-1.54h26.326c0.807 0 1.54 0.66 1.54 1.54v29.333c-0.073 0.807-0.733 1.467-1.54 1.467zM433.535 315.417h-26.326c-0.807 0-1.54-0.66-1.54-1.54v-29.333c0-0.807 0.66-1.54 1.54-1.54h26.326c0.807 0 1.54 0.66 1.54 1.54v29.333c-0.073 0.807-0.733 1.54-1.54 1.54zM485.087 180.634h-26.326c-0.807 0-1.467-0.66-1.467-1.467v-29.333c0-0.88 0.66-1.54 1.467-1.54h26.326c0.807 0 1.54 0.66 1.54 1.54v29.333c0 0.807-0.66 1.467-1.54 1.467zM433.535 382.735h-26.326c-0.807 0-1.54-0.66-1.54-1.467v-29.333c0-0.807 0.66-1.54 1.54-1.54h26.326c0.807 0 1.54 0.66 1.54 1.54v29.333c-0.073 0.807-0.733 1.467-1.54 1.467zM433.535 450.053h-26.326c-0.807 0-1.54-0.66-1.54-1.54v-29.333c0-0.807 0.66-1.54 1.54-1.54h26.326c0.807 0 1.54 0.66 1.54 1.54v29.333c-0.073 0.88-0.733 1.54-1.54 1.54zM485.087 382.735h-26.326c-0.807 0-1.467-0.66-1.467-1.467v-29.333c0-0.807 0.66-1.54 1.467-1.54h26.326c0.807 0 1.54 0.66 1.54 1.54v29.333c0 0.807-0.66 1.467-1.54 1.467zM709.262 174.914h-35.126c-1.613 0-2.86-1.247-2.86-2.787v-21.339c0-1.54 1.32-2.787 2.86-2.787h35.126c1.613 0 2.86 1.247 2.86 2.787v21.339c0 1.54-1.247 2.787-2.86 2.787zM709.262 214.366h-35.126c-1.613 0-2.86-1.247-2.86-2.787v-21.339c0-1.54 1.32-2.787 2.86-2.787h35.126c1.613 0 2.86 1.247 2.86 2.787v21.339c0 1.54-1.247 2.787-2.86 2.787zM626.324 333.603h-34.246c-1.54 0-2.787-1.247-2.787-2.787v-21.413c0-1.54 1.247-2.787 2.787-2.787h34.246c1.54 0 2.787 1.247 2.787 2.787v21.413c0.073 1.54-1.247 2.787-2.787 2.787zM626.324 293.931h-34.246c-1.54 0-2.787-1.247-2.787-2.787v-21.413c0-1.54 1.247-2.787 2.787-2.787h34.246c1.54 0 2.787 1.247 2.787 2.787v21.413c0.073 1.54-1.247 2.787-2.787 2.787zM762.867 174.914h-35.052c-1.613 0-2.86-1.247-2.86-2.787v-21.339c0-1.54 1.247-2.787 2.86-2.787h35.052c1.613 0 2.86 1.247 2.86 2.787v21.339c0.073 1.54-1.247 2.787-2.86 2.787zM512 960c-282.766 0-512-229.234-512-512s229.234-512 512-512 512 229.234 512 512c0 282.766-229.234 512-512 512zM369.224 108.182c0-1.613-1.32-2.933-2.933-2.933h-39.232v58.445c0 1.613-1.32 2.933-2.933 2.933h-35.419c-1.613 0-2.933-1.32-2.933-2.933v-58.445h-38.206c-1.613 0-2.86 1.32-2.86 2.933v92.838c0 1.613 1.32 2.933 2.86 2.933h118.65c1.613 0 2.933-1.32 2.933-2.933v-92.838zM366.657 214.659h-118.504c-1.613 0-2.933 1.32-2.933 2.933 0 0.587 0.147 1.173 0.513 1.613l0.88 1.1 57.492 75.458 0.587 0.587 0.367 0.44c0.513 0.44 1.173 0.733 1.907 0.733 0.88 0 1.613-0.367 2.127-0.953l0.587-0.66 59.105-76.411c0.44-0.513 0.733-1.173 0.733-1.907 0-1.613-1.247-2.933-2.86-2.933zM375.53 817.664c11 0 19.873 0.953 26.546 2.787s12.026 4.987 15.986 9.313c3.96 4.327 7.48 10.633 10.56 18.846h26.033v-246.394h-38.719v188.022h-40.479v27.426zM506.207 107.889c0-1.54-1.32-2.787-2.86-2.787h-114.91c-1.54 0-2.787 1.247-2.787 2.787v392.836c0 1.54 1.247 2.86 2.787 2.86h114.91c1.54 0 2.86-1.247 2.86-2.86v-392.836zM656.17 263.791c0 1.32 1.1 2.347 2.347 2.347h118.21c1.32 0 2.347-1.1 2.347-2.347v-23.613c0-1.32-1.027-2.347-2.347-2.347h-118.137c-1.32 0-2.347 1.027-2.347 2.347v23.613zM516.327 817.664c11 0 19.873 0.953 26.546 2.787s12.026 4.987 15.986 9.313c3.96 4.327 7.48 10.633 10.56 18.846h26.033v-246.394h-38.719v188.022h-40.479v27.426zM642.457 107.302c0-1.54-1.247-2.787-2.787-2.787h-114.837c-1.54 0-2.787 1.247-2.787 2.787v176.142c0 0.88 0.367 1.687 0.953 2.273l0.513 0.66 113.884 144.536c0.073 0.073 0.147 0.073 0.22 0.147 0.513 0.293 1.027 0.513 1.613 0.513 1.393 0 2.493-0.953 2.86-2.2 0.147-0.367 0.293-0.733 0.293-1.173v-320.898zM779.293 106.862c0-1.54-1.247-2.787-2.86-2.787h-117.477c-1.613 0-2.86 1.247-2.86 2.787v118.577c0 1.54 1.247 2.787 2.86 2.787h117.477c1.613 0 2.86-1.247 2.86-2.787v-118.577zM762.867 214.366h-35.052c-1.613 0-2.86-1.247-2.86-2.787v-21.339c0-1.54 1.247-2.787 2.86-2.787h35.052c1.613 0 2.86 1.247 2.86 2.787v21.339c0.073 1.54-1.247 2.787-2.86 2.787zM626.324 254.332h-34.246c-1.54 0-2.787-1.247-2.787-2.787v-21.486c0-1.54 1.247-2.787 2.787-2.787h34.246c1.54 0 2.787 1.247 2.787 2.787v21.486c0.073 1.54-1.247 2.787-2.787 2.787zM626.324 214.733h-34.246c-1.54 0-2.787-1.247-2.787-2.787v-21.413c0-1.54 1.247-2.787 2.787-2.787h34.246c1.54 0 2.787 1.247 2.787 2.787v21.413c0.073 1.54-1.247 2.787-2.787 2.787zM573.745 320.77c-1.027 0-1.907-0.44-2.493-1.173l-0.807-1.027c-8.286-10.193-28.086-34.539-32.412-40.772-0.073-0.147-0.22-0.367-0.293-0.44-0.073-0.147-0.22-0.22-0.22-0.367-0.073-0.147-0.073-0.22-0.147-0.293-0.147-0.293-0.22-0.66-0.22-1.027v-5.94c0-1.54 1.247-2.787 2.787-2.787h34.246c1.54 0 2.787 1.247 2.787 2.787v48.399c-0.367 1.54-1.687 2.64-3.227 2.64zM626.324 175.060h-34.246c-1.54 0-2.787-1.247-2.787-2.787v-21.413c0-1.54 1.247-2.787 2.787-2.787h34.246c1.54 0 2.787 1.247 2.787 2.787v21.413c0.073 1.54-1.247 2.787-2.787 2.787z" />
<glyph unicode="&#xe90b;" glyph-name="ODSBlanco12" d="M512 960c-282.766 0-512-229.234-512-512s229.234-512 512-512 512 229.234 512 512c0 282.766-229.234 512-512 512zM509.213 628.982c0 17.6 2.787 32.706 8.433 45.245s15.693 26.473 30.286 41.726c14.3 15.253 24.199 28.306 29.773 39.086 5.5 10.78 8.286 22.073 8.286 33.806 0 10.56-1.687 17.893-5.133 21.999-3.373 4.107-8.36 6.16-14.96 6.16-13.346 0-20.093-8.066-20.093-24.273v-26.399h-36.592v23.906c0 19.946 4.913 35.272 14.813 45.905 9.826 10.706 24.199 15.986 42.972 15.986s33.072-5.353 42.972-15.986c9.826-10.706 14.813-25.959 14.813-45.905 0-15.033-3.593-29.699-10.706-43.999-7.186-14.3-19.506-30.726-37.106-49.279-11.513-12.173-19.213-22.146-23.246-29.773-3.96-7.626-6.013-15.766-6.013-24.493v-5.28h73.551v-35.199h-112.050v26.766zM382.863 817.664c11 0 19.873 0.953 26.546 2.787s12.026 4.987 15.986 9.313c3.96 4.327 7.48 10.633 10.56 18.846h26.033v-246.394h-38.719v188.022h-40.479v27.426zM701.122 176.307c-14.96-5.573-29.479-7.553-42.752-7.553-31.753 0-56.245 11.586-61.378 14.226-40.332 17.673-72.378 51.259-97.897 102.591-49.205 98.924-84.991 106.991-111.024 112.857l-1.76 0.367c-10.046 2.273-45.539 2.2-71.351-18.406-20.313-16.206-30.579-42.166-30.579-77.071 0-27.573 4.693-43.046 18.48-61.232l0.44-0.587c1.1-1.54 30.579-40.552 90.124-29.186 7.406 1.467 17.16 4.767 28.306 11.953l-17.233 15.62-0.88 0.88c-1.247 1.1-1.32 2.933-0.22 4.18 0.367 0.44 0.953 0.733 1.467 0.88l1.393 0.22 77.071 21.559 0.88 0.073 0.587 0.073c0.66 0 1.393-0.22 1.907-0.733 0.66-0.587 0.953-1.393 0.953-2.127v-0.88l-13.053-80.445v-0.22c0-0.733-0.22-1.393-0.733-1.98-1.1-1.173-2.933-1.247-4.18-0.22l-18.113 16.353c-19.653-14.74-37.472-20.973-50.672-23.539-82.351-15.766-124.957 38.939-129.137 44.659-18.993 25.006-26.399 48.765-26.399 84.771 0 59.105 24.639 91.151 45.319 107.651 39.599 31.606 89.904 29.259 104.424 25.959l1.687-0.367c31.826-7.186 79.931-18.113 137.496-133.61 28.526-57.345 58.812-75.678 79.125-84.478l1.613-0.733c0.293-0.147 35.712-18.626 72.598-4.767 23.833 8.873 52.285 31.753 52.285 90.124 0 34.832-10.486 60.718-31.093 76.998-26.473 20.899-63.065 21.046-72.671 18.7l-2.2-0.513c-18.553-4.4-45.979-11-80.885-59.252-0.22-0.367-0.44-0.66-0.733-1.027-0.587-0.587-1.393-0.953-2.347-0.953-1.32 0-2.42 0.807-3.007 1.833-0.073 0.147-0.073 0.22-0.147 0.293-5.28 9.753-11.513 20.386-16.426 28.673l-0.953 1.54c-0.293 0.513-0.44 1.027-0.44 1.613 0 0.733 0.293 1.393 0.66 1.907l0.513 0.587c0.22 0.293 0.44 0.587 0.66 0.807 39.306 48.765 72.891 57.052 94.011 62.038l2.127 0.513c18.333 4.327 68.272 3.74 106.037-26.033 20.973-16.573 45.979-48.692 45.979-107.724-0.22-88.364-54.559-118.21-77.878-126.863z" />
<glyph unicode="&#xe90c;" glyph-name="ODSBlanco13" d="M613.124 284.398c0 2.127-3.52 6.16-6.233 7.553-2.64 1.32-5.353-0.513-4.327-3.813 1.1-3.227 2.347-4.62 3.74-5.133 1.54-0.44 6.82-0.733 6.82 1.393zM539.646 291.511c-1.98-0.147-7.406-4.473-4.107-7.040 3.373-2.64 9.973-3.447 12.613-1.1 2.567 2.273-4.033 8.506-8.506 8.14zM620.457 270.905c2.64 2.347-4.033 8.506-8.506 8.14-1.98-0.147-7.406-4.4-4.107-7.040 3.373-2.567 10.046-3.447 12.613-1.1zM477.388 237.465c1.247 6.82 3.447 7.333 3.007 15.546s0.733 10.12 6.673 16.060c5.94 5.94 4.253 2.787 6.013 8.286 1.687 5.5-4.253 7.040-9.606 10.413-6.233 3.96-12.686 14.666-12.1 21.853 0.44 5.060 3.080 0.44 9.24-5.94s8.873-11.44 15.106-9.9c6.233 1.54 14.813 7.113 12.613 13.493-1.54 4.253-22.586 21.046-21.633 24.199 1.1 3.593 4.693 0.88 11.073-4.107 6.38-5.060 14.080-4.18 15.62-13.053 2.933-16.426 21.633-9.166 34.539-23.906 4.913-5.647 7.333 0.44 10.706 7.333s-2.64 10.046 2.053 13.273c4.693 3.227 10.266 1.833 12.393-3.667s5.133-12.613 7.846-19.873c2.64-6.893 18.333-17.673 20.459-17.82 8.946-0.587-3.080 13.2-4.033 18.26-0.953 4.987 2.86 14.446 6.746 15.84s5.427 0.073 13.86 5.573c8.433 5.5-0.293 6.453-0.44 15.546-0.22 9.166 5.427 3.813 6.82 1.833 5.207-7.626 14.226-3.593 15.473 1.173 0.293 1.173 0.733 3.227 0.66 6.087-13.933 57.932-65.998 101.051-128.183 101.051-26.179 0-50.525-7.626-70.985-20.753 15.326 1.173 45.979 6.38 42.679-7.113-2.933-11.88 19.433-13.786 8.066-19.653-4.84-2.493-18.92-12.32-21.999-10.633-8.726 4.693 17.893 10.78 12.76 14.226-5.133 3.52-15.326-0.513-23.393-2.273-3.887-0.88-19.286-0.88-24.933-3.52-5.647-2.713-12.246-6.307-10.413-11.146 1.907-4.84 17.086-8.58 19.653-8.58s5.353 0.587 10.78 7.333c5.427 6.746 12.026 0.587 10.12-0.367s-6.233-3.96-9.533-7.993c-2.713-3.153-7.7-5.427-13.126-2.64-5.427 2.713-17.673 1.247-20.019-0.147s-8.213-5.5-9.973-5.94c-1.76-0.44-4.327-1.833-3.447-3.667s1.32-4.033 0-5.353c-1.32-1.393-3.813-4.253-7.186-1.98-3.080 2.053-12.173 1.173-14.666-1.613-0.367-1.027-0.66-2.127-0.953-3.227-0.147-4.693 1.907-12.32 9.606-6.6 2.567 1.907 15.18 1.467 22.953 8.873 3.667 3.447 7.773-1.1 8.653-2.933s6.233-13.2 8.873-12.686c2.64 0.44-4.327 10.853-1.173 11.366 3.080 0.44 7.040-8.8 8.946-7.48 5.060 3.593 9.166 2.347 9.753-3.007 0.44-4.18-3.52-6.966-8.58-9.093-7.040-2.86-19.066 3.667-26.693 6.453-9.313 3.52-21.559 5.427-21.559 5.427l-7.846-2.64c0 0 0.147-1.907-6.82-10.193-0.293-0.367-0.587-0.807-0.807-1.247-0.44-4.327-0.66-8.726-0.66-13.126 0-18.186 3.667-35.566 10.34-51.332 0.147-0.073 0.293-0.147 0.44-0.22 7.26-2.273 5.207-1.1 10.266 1.173 5.133 2.273 9.753 7.333 13.42 2.787s7.186-3.080 7.7-10.413c0.513-7.333 7.553 4.767 8.873-6.16 2.127-17.16 6.16-8.726 6.16-11.513 0-8.213 0.807-24.199 6.82-24.713 6.013-0.44 15.4 3.667 17.966 6.893 2.567 3.153 5.573 6.82 8.14 16.866 2.64 10.046 5.573 4.107 6.893 11zM393.276 351.789c4.18 0.953 11.293 9.46 15.84 13.64 1.613 1.467 10.413 5.5 9.826 7.626-0.513 2.2-4.913 3.813-8.213 3.3s-7.993-1.1-10.413-3.813c-0.147-0.147-0.367-0.44-0.66-0.807-3.813-6.233-7.113-12.76-9.826-19.579 0.953-0.44 2.053-0.66 3.447-0.367zM410.143 381.488c3.96-0.66 11.22 3.447 14.006 6.307 1.027 1.027 2.127 6.893 1.76 8.36-0.293 1.54-3.007 2.64-4.987 2.273-2.053-0.367-4.913-0.733-6.38-2.64-0.66-0.88-6.38-8.066-8.066-10.56-0.587-0.88 0.587-3.3 3.667-3.74zM512 960c-282.766 0-512-229.234-512-512s229.234-512 512-512 512 229.234 512 512c0 282.766-229.234 512-512 512zM499.754 680.021h36.592v-21.853c0-16.206 6.673-24.273 20.093-24.273 6.6 0 11.586 2.053 14.96 6.16s5.133 11.293 5.133 21.633v20.093c0 11.293-1.98 19.286-6.013 24.126-3.96 4.84-10.413 7.186-19.359 7.186h-13.053v35.199h14.080c7.773 0 13.566 1.98 17.453 6.013 3.887 3.96 5.793 10.706 5.793 20.093v17.966c0 8.433-1.76 14.666-5.28 18.626s-8.213 6.013-14.080 6.013c-12.466 0-18.626-7.626-18.626-22.879v-16.206h-36.592v13.053c0 19.726 4.84 34.832 14.593 45.392s23.759 15.84 42.092 15.84c18.553 0 32.632-5.207 42.239-15.693 9.606-10.413 14.446-25.519 14.446-45.245v-8.8c0-13.346-2.2-24.126-6.673-32.192s-11.366-13.933-20.753-17.453v-0.733c10.12-3.74 17.38-9.826 21.853-18.333 4.473-8.433 6.673-19.213 6.673-32.412v-21.853c0-19.726-4.913-34.832-14.593-45.245-9.753-10.413-24.126-15.693-43.119-15.693s-33.366 5.28-43.119 15.84c-9.753 10.56-14.593 25.666-14.593 45.392v20.239zM375.53 817.664c11 0 19.873 0.953 26.546 2.787s12.026 4.987 15.986 9.313c3.96 4.327 7.48 10.633 10.56 18.846h26.033v-246.394h-38.719v188.022h-40.479v27.426zM825.638 300.237c-22.513-31.533-124.297-157.589-313.565-157.589s-291.126 126.057-313.638 157.589c-0.953 1.393-1.76 2.493-2.493 3.52 0.66 0.953 1.467 2.127 2.493 3.52 22.513 31.606 124.37 157.663 313.638 157.663s291.052-126.057 313.565-157.663c1.027-1.393 1.833-2.493 2.42-3.52-0.66-0.953-1.467-2.127-2.42-3.52zM486.554 262.032c-0.953-1.76-5.647-24.859-2.347-27.499 3.3-2.567 8.286 19.579 10.12 22.586 8.653 14.006-2.567 14.52-7.773 4.913zM632.41 319.89c-1.613-0.147 4.253-6.673 2.347-8.873-11.733-13.493 3.080-33.952 6.6-34.906 1.833 8.726 2.787 17.673 2.787 26.913 0 2.567-0.073 5.133-0.22 7.626-1.687 5.793-5.133 9.753-11.513 9.24zM631.897 267.751c-2.86 5.72-6.233-3.667-22.073-7.626-5.353-1.32-12.466-2.2-23.906-6.307-8.36-3.007-18.333-16.426-13.64-28.159 4.62-11.733 1.76-19.726 12.32-12.833 10.633 6.966 3.080-1.247 6.673-2.567 3.52-1.32 2.713 4.547 9.9 0.88 1.467-0.733 2.787-1.173 4.18-1.54 13.126 13.053 23.539 28.893 30.213 46.492-0.073 3.447-1.1 6.893-2.053 8.58-0.587 0.953-1.1 1.98-1.613 3.080zM553.359 187.38c-4.473-2.567-32.559 13.42-53.972 11.293-9.606-0.953-21.706-5.060-25.813-15.693-1.027-2.787-0.073-5.060 1.613-6.453 11.733-3.447 24.199-5.28 37.032-5.28 30.066 0 57.785 10.046 79.931 26.986-3.007 1.173-2.933 2.64-12.026 3.007-13.273 0.44-22.293-11.293-26.766-13.86z" />
<glyph unicode="&#xe90d;" glyph-name="ODSBlanco14" d="M618.844 231.672c-15.693 0-28.453-12.686-28.453-28.379s12.686-28.453 28.453-28.453c15.766 0 28.453 12.76 28.453 28.453s-12.686 28.379-28.453 28.379zM574.698 778.285h-0.733l-37.986-96.137h38.719zM512 960c-282.766 0-512-229.234-512-512s229.234-512 512-512 512 229.234 512 512c0 282.766-229.234 512-512 512zM500.78 682.147l70.398 166.462h42.239v-166.462h18.333v-35.199h-18.333v-44.732h-38.719v44.732h-73.918v35.199zM382.863 817.664c11 0 19.873 0.953 26.546 2.787s12.026 4.987 15.986 9.313c3.96 4.327 7.48 10.633 10.56 18.846h26.033v-246.394h-38.719v188.022h-40.479v27.426zM280.713 454.893c0 1.54 1.247 2.787 2.787 2.787 0.147 0 0.293-0.073 0.513-0.147 0.44-0.22 0.953-0.513 1.393-0.733 14.446-7.26 59.325-24.493 100.024 14.080 0.367 0.367 0.807 0.733 1.173 1.173 0.367 0.147 0.807 0.22 1.173 0.22 0.293 0 0.587-0.073 0.88-0.147 0.587-0.22 1.1-0.66 1.393-1.1 12.1-9.24 67.832-46.932 117.404-0.66l0.807 0.733c0.513 0.44 1.173 0.807 1.907 0.807 0.807 0 1.467-0.367 1.98-0.807l0.733-0.733c49.572-46.272 105.231-8.58 117.404 0.66 0.293 0.44 0.807 0.88 1.393 1.1 0.22 0.073 0.587 0.147 0.807 0.147 0.44 0 0.807-0.073 1.173-0.22 0.367-0.44 0.807-0.807 1.173-1.173 40.699-38.499 85.578-21.266 100.024-14.080 0.513 0.293 0.953 0.513 1.393 0.733 0.22 0.073 0.367 0.147 0.587 0.147 1.54 0 2.787-1.247 2.787-2.787v-19.359c0-0.807-0.293-1.54-0.807-1.98-47.079-40.846-91.518-2.567-101.784 7.553-0.22 0.293-0.44 0.587-0.807 0.807-0.44 0.293-0.953 0.513-1.54 0.513-0.733 0-1.393-0.293-1.907-0.733 0-0.073-0.073-0.073-0.073-0.147-53.092-50.672-108.751-9.606-120.337 0l-1.173 1.027c-0.293 0.147-0.733 0.22-1.1 0.22s-0.733-0.073-1.027-0.22l-1.1-1.027c-11.586-9.606-67.245-50.672-120.337 0-0.073 0-0.073 0.073-0.147 0.147-0.513 0.44-1.173 0.733-1.907 0.733-0.587 0-1.1-0.22-1.54-0.513-0.293-0.22-0.513-0.513-0.733-0.807-10.266-10.12-54.779-48.399-101.784-7.553-0.513 0.44-0.807 1.173-0.807 1.98v19.359zM280.713 364.989v19.433c0 1.54 1.247 2.787 2.787 2.787 0.147 0 0.293-0.073 0.513-0.147 0.44-0.22 0.953-0.44 1.393-0.733 14.446-7.26 59.252-24.419 99.951 14.006 0.44 0.367 0.807 0.733 1.247 1.1 0.367 0.22 0.733 0.293 1.173 0.293 0.293 0 0.587-0.073 0.88-0.22 0.587-0.147 1.027-0.513 1.393-1.027 12.1-9.24 67.832-46.932 117.404-0.66l0.733 0.733c0.513 0.513 1.247 0.807 1.907 0.807 0.807 0 1.54-0.293 2.053-0.807l0.733-0.733c49.572-46.272 105.304-8.58 117.404 0.66 0.293 0.513 0.807 0.88 1.393 1.027 0.22 0.147 0.587 0.22 0.807 0.22 0.44 0 0.807-0.073 1.173-0.293 0.44-0.367 0.807-0.733 1.173-1.1 40.699-38.426 85.578-21.266 100.024-14.006 0.513 0.22 0.953 0.513 1.393 0.733 0.22 0 0.44 0.147 0.587 0.147 1.54 0 2.787-1.247 2.787-2.787v-19.433c0-0.807-0.367-1.467-0.807-1.98-47.079-40.919-91.518-2.567-101.784 7.553-0.22 0.293-0.44 0.513-0.807 0.733-0.44 0.293-0.953 0.513-1.54 0.513-0.733 0-1.393-0.293-1.907-0.807-0.073-0.073-0.073-0.073-0.073-0.147-53.092-50.599-108.751-9.606-120.337 0l-1.1 1.1c-0.367 0.147-0.733 0.147-1.1 0.147s-0.733-0.073-1.027-0.147l-1.173-1.1c-11.586-9.606-67.245-50.599-120.337 0-0.073 0-0.073 0.073-0.147 0.147-0.513 0.513-1.173 0.807-1.907 0.807-0.587 0-1.1-0.22-1.54-0.513-0.293-0.22-0.513-0.44-0.733-0.733-10.266-10.12-54.779-48.399-101.784-7.553-0.513 0.513-0.807 1.173-0.807 1.98zM743.067 184.96c-0.22-0.293-0.44-0.587-0.733-1.027-10.78-14.52-80.225-103.031-177.609-103.031-84.551 0-175.042 76.705-175.042 76.705s-34.099-69.738-103.837-76.265c-0.22-0.073-0.513-0.073-0.733-0.073l-0.733-0.073c-1.393 0.147-2.567 1.247-2.567 2.713 0 0.587 0.147 1.027 0.44 1.467l0.587 0.953c8.873 14.813 31.899 57.199 31.899 99.657 0 42.312-22.879 84.624-31.826 99.511 0 0-0.88 1.32-1.1 2.567-0.147 1.247 1.173 2.64 2.64 2.787h0.44c0.44 0 0.88-0.073 1.32-0.073 69.518-6.673 103.471-76.265 103.471-76.265s90.491 76.705 175.042 76.705c97.384 0 166.829-88.511 177.609-103.104 0.293-0.367 0.513-0.733 0.733-1.027 0.147-0.293 0.22-0.66 0.22-1.1 0-0.367-0.073-0.66-0.22-1.027z" />
<glyph unicode="&#xe90e;" glyph-name="ODSBlanco15" d="M512 960c-282.766 0-512-229.234-512-512s229.234-512 512-512 512 229.234 512 512c0 282.766-229.234 512-512 512zM691.369 335.070v-1.833c0-1.467-0.953-2.713-2.347-3.080-0.88-0.22-1.833 0-2.2 0.073-0.88 0.293-1.54 0.733-2.053 1.247-1.98 1.32-7.26 3.080-15.033 3.080-7.92 0-23.466-2.127-38.572-16.133l-0.293-0.293c-0.733-0.807-1.98-1.32-3.153-1.32-1.247 0-2.42 0.513-3.227 1.32l-0.367 0.293c-15.033 14.006-30.579 16.133-38.499 16.133-7.626 0-12.98-1.833-14.96-3.080-0.513-0.513-1.173-0.953-1.907-1.173-0.22-0.073-0.513-0.147-0.66-0.147-0.953-0.22-1.833 0-2.64 0.587-0.733 0.587-1.1 1.54-1.1 2.567v2.053c0 0.88 0.367 1.76 1.027 2.347 9.020 8.506 19.14 12.76 29.993 12.76 15.18 0 27.646-8.506 32.339-12.173 4.767 3.813 17.233 12.173 32.266 12.173 11 0 21.266-4.4 30.359-13.126 0.587-0.513 1.027-1.393 1.027-2.273zM546.099 429.74c-7.553 0-12.686-2.053-14.226-3.227-0.44-0.513-0.953-0.953-1.613-1.173-0.147-0.073-0.367-0.147-0.513-0.147-0.807-0.22-1.76-0.073-2.493 0.367-0.88 0.587-1.467 1.467-1.467 2.493l-0.147 1.687c0 0.88 0.293 1.76 0.88 2.42 7.626 8.14 16.573 12.246 26.473 12.246 11.293 0 20.973-5.573 24.933-8.286 4.327 3.813 14.813 11.586 27.939 11.586 8.433 0 16.5-3.153 23.906-9.386 0.66-0.587 1.1-1.32 1.1-2.2l0.073-1.467c0.073-1.467-0.807-2.713-2.127-3.227-0.22-0.073-0.513-0.147-0.807-0.22-0.587-0.073-1.173 0.073-1.393 0.073-0.807 0.22-1.467 0.587-1.98 1.027-1.393 0.733-4.84 1.76-9.753 1.76-6.893 0-20.313-1.98-32.779-15.18l-0.22-0.293c-0.66-0.807-1.76-1.32-2.933-1.393h-0.293c-1.027 0-2.053 0.367-2.86 1.1l-0.293 0.293c-11.073 9.166-22.146 11.146-29.406 11.146zM643.703 476.599c2.933 1.1 7.846 2.493 13.42 2.493 7.553 0 18.113-2.64 25.373-15.253 0.293-0.44 0.44-1.027 0.44-1.613 0-0.293 0-0.66-0.147-0.88l-0.293-1.1c-0.22-0.807-0.807-1.54-1.613-1.907-0.513-0.22-0.953-0.367-1.467-0.367-0.147 0-0.22 0-0.367 0s-0.367 0-0.513 0.073c-0.367 0.147-0.88 0.44-1.173 0.587-0.513 0.367-0.953 0.88-1.247 1.393-1.467 1.613-7.626 5.427-17.013 5.427-5.573 0-11.22-1.393-16.646-4.107l-0.22-0.147c-0.513-0.293-1.173-0.44-1.907-0.44-0.367 0-0.88 0.073-1.173 0.22-1.027 0.293-1.833 0.953-2.42 1.907l-0.147 0.22c-9.973 16.94-25.006 17.453-26.693 17.453-1.247 0-1.907-0.22-2.273-0.293-0.587-0.293-1.173-0.44-1.833-0.44-0.147 0-0.293 0-0.44 0-0.88 0.073-1.76 0.513-2.273 1.247-0.587 0.807-0.733 1.833-0.513 2.787l0.367 1.247c0.293 0.88 0.88 1.613 1.613 1.98 4.693 2.347 9.386 3.52 14.006 3.52 13.126 0.147 21.779-9.386 25.153-14.006zM501.514 680.021h36.592v-22.146c0-15.986 6.673-23.906 20.093-23.906s20.093 7.993 20.093 23.906v55.292c0 16.206-6.673 24.273-20.093 24.273s-20.093-8.066-20.093-24.273v-2.127h-36.592l7.040 137.643h102.077v-35.199h-67.612l-3.080-58.812h0.733c7.26 11.953 18.406 17.966 33.439 17.966 14.080 0 24.786-4.84 32.046-14.446s10.926-23.613 10.926-41.872v-55.585c0-19.946-4.913-35.272-14.813-45.905-9.826-10.706-24.199-15.986-42.972-15.986s-33.072 5.353-42.972 15.986c-9.826 10.706-14.813 25.959-14.813 45.905v19.286zM375.53 817.664c11 0 19.873 0.953 26.546 2.787s12.026 4.987 15.986 9.313c3.96 4.327 7.48 10.633 10.56 18.846h26.033v-246.394h-38.719v188.022h-40.479v27.426zM376.997 440.227c0.88 0 1.76-0.073 2.567-0.147 2.127 28.306 25.739 50.672 54.559 50.672 30.286 0 54.779-24.566 54.779-54.779 0-8.58-2.053-16.646-5.5-23.906 27.426-6.087 47.959-30.506 47.959-59.765 0-33.806-27.426-61.232-61.232-61.232-2.493 0-81.765 0.513-81.765 0.513-23.979 0-43.339 19.433-43.339 43.339 0 11.513 4.547 21.926 11.806 29.699-12.173 6.966-20.386 20.093-20.386 35.126 0.073 22.366 18.186 40.479 40.552 40.479zM451.502 274.571v-56.025c0-0.953-0.733-1.687-1.687-1.687h-22.659c-0.953 0-1.687 0.733-1.687 1.687v56.025c0 0.953 0.733 1.687 1.687 1.687h22.659c0.953 0 1.687-0.733 1.687-1.687zM700.535 122.848c0-0.88-0.807-1.687-1.687-1.687h-373.624c-0.953 0-1.687 0.733-1.687 1.687v22.953c0 0.953 0.807 1.687 1.687 1.687h373.624c0.953 0 1.687-0.733 1.687-1.687v-22.953zM700.535 168.167c0-0.953-0.807-1.687-1.687-1.687h-373.624c-0.953 0-1.687 0.733-1.687 1.687v22.806c0 0.953 0.807 1.76 1.687 1.76h373.624c0.953 0 1.687-0.807 1.687-1.76v-22.806z" />
<glyph unicode="&#xe90f;" glyph-name="ODSBlanco16" d="M471.741 192.953l14.74-0.367v38.792c-4.913-0.367-9.826-0.513-14.74-0.367v-38.059zM566.925 633.968c13.346 0 20.093 7.993 20.093 23.906v43.632c0 16.206-6.673 24.273-20.093 24.273s-20.093-8.066-20.093-24.273v-43.632c0.073-15.986 6.746-23.906 20.093-23.906zM512 960c-282.766 0-512-229.234-512-512s229.234-512 512-512 512 229.234 512 512c0 282.766-229.234 512-512 512zM659.543 494.639c0 0 12.246-6.38 14.666-17.086s-5.867-21.779-5.867-21.779-12.246 6.38-14.666 17.16c-2.42 10.706 5.867 21.706 5.867 21.706zM637.25 470.586c0 0 12.246-6.38 14.666-17.086s-5.867-21.779-5.867-21.779-12.246 6.38-14.666 17.086c-2.42 10.78 5.867 21.779 5.867 21.779zM508.187 788.111c0 42.679 19.726 64.092 59.105 64.092 18.773 0 33.072-5.353 42.972-15.986 9.826-10.706 14.813-25.959 14.813-45.905v-4.547h-36.592v7.040c0 16.206-6.673 24.273-20.093 24.273-7.26 0-12.686-2.2-16.206-6.673s-5.28-12.32-5.28-23.613v-47.152h0.733c6.82 14.3 18.553 21.486 35.199 21.486 14.080 0 24.786-4.84 32.046-14.446s10.926-23.613 10.926-41.872v-43.999c0-19.726-5.060-34.979-15.106-45.759-10.12-10.78-24.639-16.206-43.632-16.206s-33.586 5.427-43.632 16.206-15.106 26.033-15.106 45.759v127.303zM382.863 817.664c11 0 19.873 0.953 26.546 2.787s12.026 4.987 15.986 9.313c3.96 4.327 7.48 10.633 10.56 18.846h26.033v-246.394h-38.719v188.022h-40.479v27.426zM351.331 276.478c-3.227 0.733-5.133 1.32-5.133 1.32 1.613-0.293 3.373-0.733 5.133-1.32zM329.918 173.52c0-5.647-3.96-10.266-8.8-10.266h-5.28c-4.84 0-8.8 4.62-8.8 10.266v18.48c0 5.647 3.96 10.266 8.8 10.266h5.28c4.84 0 8.8-4.547 8.8-10.266v-18.48zM336.371 169.121v26.766l124.517-2.713v38.352c-14.080 1.1-27.866 3.887-40.919 8.433-22.439 7.7-47.519 29.919-68.638 36.519 11.513-2.64 39.966-7.040 60.205 6.893 25.886 17.893 30.066 20.093 46.125 22.733-34.759 2.933-60.132 24.346-70.178 71.645-9.606 45.099-16.28 62.845-35.199 70.911 27.719 2.713 68.198 2.933 114.617-44.512 35.126-35.932 71.131-35.052 99.804-8.433 28.599 26.619 48.692 39.452 64.238 21.999 3.74-4.18 7.406-7.846 10.853-10.926 3.593 17.306 14.080 28.233 24.566 38.866 5.72 5.867 11.66 11.953 16.206 18.993l3.74-2.42c-4.767-7.406-10.853-13.64-16.72-19.653-10.706-10.926-21.119-21.633-23.906-39.086 8.36-6.966 14.3-10.12 14.3-10.12s-6.233 0.587-14.96-0.44c0.073-9.020 1.907-19.506 6.16-32.339-1.467-0.147-3.007-0.293-4.473-0.367-4.033 12.54-5.867 23.026-6.087 32.119-4.4-0.733-9.166-1.907-14.006-3.74-16.94-6.38-28.746-20.679-27.353-57.492 1.393-36.152-12.393-75.531-75.605-93.351-8.653-2.42-17.38-4.18-26.106-5.28v-40.112l65.632-1.54 44.952 4.913v20.826c0 3.3 2.713 5.94 6.013 5.94h68.858c3.3 0 6.013-2.713 6.013-5.94v-68.272c0-3.3-2.713-6.013-6.013-6.013h-68.858c-3.3 0-6.013 2.713-6.013 6.013v20.826l-44.952 4.913-226.814-4.913zM679.122 429.74c9.9-1.173 16.72-11.586 16.72-11.586s-9.386-8.506-19.286-7.333c-9.973 1.173-16.72 11.586-16.72 11.586s9.313 8.506 19.286 7.333zM685.429 114.122h-74.285c-5.793 0-10.486 4.693-10.486 10.486s4.693 10.486 10.486 10.486h74.285c5.793 0 10.486-4.693 10.486-10.486s-4.693-10.486-10.486-10.486zM685.429 229.986h-74.285c-5.793 0-10.486 4.693-10.486 10.486s4.693 10.486 10.486 10.486h74.285c5.793 0 10.486-4.693 10.486-10.486s-4.693-10.486-10.486-10.486zM698.848 435.607c-9.973-0.88-18.7 7.92-18.7 7.92s7.406 10.266 17.38 11.146c9.973 0.88 18.7-7.92 18.7-7.92s-7.406-10.266-17.38-11.146zM709.922 474.913c-8.14-8.213-22.439-6.966-22.439-6.966s-1.173 14.593 6.966 22.806c8.14 8.213 22.439 6.966 22.439 6.966s1.173-14.593-6.966-22.806z" />
<glyph unicode="&#xe910;" glyph-name="ODSBlanco17" d="M522.34 339.763c0-4.033 0.367-7.92 0.953-11.806 36.959 5.5 65.338 37.326 65.338 75.751 0 4.033-0.367 7.92-1.027 11.806-36.886-5.5-65.265-37.326-65.265-75.751zM389.83 271.785c10.56-5.5 22.513-8.653 35.199-8.653 29.919 0 55.879 17.306 68.492 42.386-10.56 5.5-22.513 8.653-35.199 8.653-29.993-0.073-55.879-17.306-68.492-42.386zM512 380.315c13.053 27.866 39.086 48.472 70.252 53.972-11.88 27.133-38.866 46.125-70.252 46.125s-58.445-18.993-70.252-46.125c31.166-5.5 57.199-26.033 70.252-53.972zM500.707 328.030c0.587 3.813 1.027 7.773 1.027 11.806 0 38.426-28.453 70.252-65.338 75.751-0.587-3.813-1.027-7.773-1.027-11.806-0.073-38.499 28.379-70.252 65.338-75.751zM598.971 263.131c12.76 0 24.859 3.227 35.492 8.726-12.54 25.373-38.572 42.899-68.712 42.899-12.833 0-24.859-3.227-35.492-8.726 12.54-25.373 38.572-42.899 68.712-42.899zM447.322 332.796c-19.286 17.526-31.386 42.826-31.386 70.911 0 4.18 0.293 8.213 0.807 12.246-38.426-4.107-68.418-36.739-68.418-76.191 0-22.586 9.826-42.826 25.373-56.832 14.666 27.059 41.799 46.272 73.625 49.865zM607.184 416.027c0.513-4.033 0.807-8.14 0.807-12.246 0-27.793-11.88-52.799-30.799-70.325 31.753-3.813 58.812-23.173 73.258-50.232 15.473 14.006 25.226 34.172 25.226 56.612 0 39.452-30.066 72.085-68.492 76.191zM512 960c-282.766 0-512-229.234-512-512s229.234-512 512-512 512 229.234 512 512c0 282.766-229.234 512-512 512zM500.12 848.683h116.157v-33.806l-60.572-212.588h-39.452l61.965 211.195h-78.098v35.199zM375.53 817.664c11 0 19.873 0.953 26.546 2.787s12.026 4.987 15.986 9.313c3.96 4.327 7.48 10.633 10.56 18.846h26.033v-246.394h-38.719v188.022h-40.479v27.426zM658.076 264.231c2.347-8.286 3.667-17.086 3.667-26.106 0-52.945-43.046-95.991-95.991-95.991-19.726 0-37.986 5.94-53.239 16.206-15.473-10.56-34.099-16.793-54.192-16.793-52.945 0-95.991 43.046-95.991 95.991 0 9.24 1.32 18.186 3.813 26.619-22.513 17.6-37.032 44.952-37.032 75.678 0 51.772 41.139 94.011 92.471 95.918 13.2 37.252 48.765 64.018 90.491 64.018s77.291-26.766 90.491-64.018c51.259-1.907 92.471-44.146 92.471-95.918-0.073-30.726-14.52-58.005-36.959-75.605zM598.971 243.772c-16.866 0-32.706 4.4-46.492 12.026 1.173-5.94 1.76-12.1 1.76-18.333 0-25.519-10.046-48.765-26.326-65.998 11.146-6.38 24.053-10.046 37.839-10.046 42.239 0 76.705 34.392 76.705 76.631 0 5.207-0.513 10.34-1.54 15.326-12.76-6.16-26.913-9.606-41.946-9.606zM471.374 255.725c-13.786-7.626-29.553-11.953-46.345-11.953-14.96 0-29.113 3.447-41.726 9.533-1.1-5.133-1.687-10.413-1.687-15.913 0-42.239 34.392-76.631 76.705-76.631 14.080 0 27.206 3.887 38.572 10.486-16.793 17.306-27.133 40.846-27.133 66.805-0.073 6.087 0.513 11.953 1.613 17.673zM511.633 292.391c-13.933-13.86-22.586-33.072-22.586-54.265 0-21.559 8.946-40.992 23.319-54.925 13.933 13.86 22.586 33.072 22.586 54.265 0 21.559-8.946 40.992-23.319 54.925z" />
<glyph unicode="&#xe911;" d="M1024 448c0-282.77-229.23-512-512-512s-512 229.23-512 512c0 282.77 229.23 512 512 512s512-229.23 512-512z" />
<glyph unicode="&#xe912;" d="M755.9 483.126c0 13.053 10.633 23.686 23.686 23.686s23.613-10.56 23.613-23.686c0-13.053-10.56-23.686-23.613-23.686-13.053 0.073-23.686 10.633-23.686 23.686z" />
<glyph unicode="&#xe913;" d="M807.232 450.347c16.060-1.467 28.599-14.96 28.599-31.386v-65.558c0-5.060-4.107-9.166-9.166-9.166s-9.166 4.107-9.166 9.166v56.319c0 2.127-0.587 4.987-4.473 4.987-2.64 0-3.227-2.86-3.3-4.62v-168.809c0-7.26-5.867-13.2-13.2-13.2-7.26 0-13.2 5.94-13.2 13.2v97.237c0 1.1-0.367 3.887-3.74 3.887v0c-3.373 0-3.74-2.787-3.813-3.887v-97.237c0-7.26-5.867-13.2-13.126-13.2-7.333 0-13.2 5.94-13.2 13.2v168.809c-0.073 1.833-0.66 4.62-3.3 4.62-3.887 0-4.473-2.86-4.473-4.987v-56.319c0-5.060-4.107-9.166-9.166-9.166s-9.166 4.107-9.166 9.166v65.558c0 16.5 12.613 29.919 28.673 31.386 0.513 0.073 1.1 0.147 1.76 0.147h51.699c0.587 0 1.173 0 1.76-0.147z" />
<glyph unicode="&#xe914;" d="M615.251 470.733c0 12.393-9.973 22.439-22.366 22.439s-22.439-10.046-22.439-22.439c0-12.393 10.046-22.366 22.439-22.366s22.366 9.973 22.366 22.366z" />
<glyph unicode="&#xe915;" d="M547.786 419.987l-18.626-60.645c0 0-3.3-11.146 6.087-13.86 9.386-2.787 12.246 8.066 12.246 8.066l15.033 50.599c0 0 0.807 3.887 3.74 3.080s1.833-4.987 1.833-4.987l-26.179-94.818h24.273v-67.905c0-6.453 5.207-11.66 11.66-11.66s11.66 5.207 11.66 11.66v67.905h6.673v-67.905c0-6.453 5.207-11.66 11.66-11.66s11.66 5.207 11.66 11.66v67.905h24.273l-26.106 94.818c0 0-1.1 4.18 1.833 4.987s3.813-3.080 3.813-3.080l15.033-50.599c0 0 2.86-10.853 12.246-8.066 9.46 2.787 6.087 13.86 6.087 13.86l-18.7 60.645c0 0-6.673 17.526-21.413 17.526h-47.445c-14.666 0-21.339-17.526-21.339-17.526z" />
<glyph unicode="&#xe916;" d="M481.127 470.733c0 12.393-10.046 22.439-22.366 22.439-12.393 0-22.366-10.046-22.366-22.439s10.046-22.366 22.366-22.366c12.32 0 22.366 9.973 22.366 22.366z" />
<glyph unicode="&#xe917;" d="M413.589 419.987l-18.626-60.645c0 0-3.3-11.146 6.087-13.86 9.386-2.787 12.246 8.066 12.246 8.066l15.033 50.599c0 0 0.807 3.887 3.74 3.080s1.833-4.987 1.833-4.987l-26.106-94.818h24.273v-67.905c0-6.453 5.207-11.66 11.66-11.66s11.66 5.207 11.66 11.66v67.905h6.673v-67.905c0-6.453 5.207-11.66 11.66-11.66s11.66 5.207 11.66 11.66v67.905h24.273l-26.106 94.818c0 0-1.1 4.18 1.833 4.987s3.74-3.080 3.74-3.080l15.033-50.599c0 0 2.86-10.853 12.246-8.066 9.46 2.787 6.087 13.86 6.087 13.86l-18.626 60.645c0 0-6.673 17.526-21.413 17.526h-47.445c-14.74 0-21.413-17.526-21.413-17.526z" />
<glyph unicode="&#xe918;" d="M690.489 345.409c10.34 0 18.626 8.36 18.626 18.626 0 10.34-8.286 18.626-18.626 18.626s-18.626-8.286-18.626-18.626c0-10.34 8.286-18.626 18.626-18.626z" />
<glyph unicode="&#xe919;" d="M645.757 287.478c-0.953-2.2-1.687-6.82 2.713-8.8 5.133-2.347 7.993 2.567 7.993 2.567l10.12 32.339c0 0 1.76 2.127 1.76-0.073v-76.118h0.073c0-5.28 4.253-9.606 9.606-9.606 5.28 0 9.533 4.253 9.533 9.606v29.993c0 0-0.513 4.253 2.86 4.253 3.447 0 2.86-4.253 2.86-4.253v-29.993c0-5.28 4.327-9.606 9.606-9.606s9.606 4.253 9.606 9.606v76.118c0 2.2 1.173 0.66 1.173 0.66l7.92-22.146c0 0 3.447-9.9 4.547-10.34 3.593-1.54 7.7 0.22 9.24 3.813 1.027 2.347 0.587 4.913-0.733 6.82l0.073 0.073c-0.22 0.733-11.88 29.259-13.273 33.292-4.18 12.32-11.88 12.173-19.213 12.393-7.406 0.147-11.806 0-11.806 0s-4.693 0.22-14.446-0.073c-9.68-0.293-12.76-5.28-23.466-32.852-1.54-4.033-6.746-16.866-6.746-17.673v0z" />
<glyph unicode="&#xe91a;" d="M281.079 483.126c0 13.053-10.633 23.686-23.686 23.686s-23.613-10.56-23.613-23.686c0-13.053 10.56-23.686 23.613-23.686 13.126 0.073 23.686 10.633 23.686 23.686z" />
<glyph unicode="&#xe91b;" d="M229.821 450.347c-16.060-1.467-28.599-14.96-28.599-31.386v-65.558c0-5.060 4.107-9.166 9.166-9.166s9.166 4.107 9.166 9.166v56.319c0 2.127 0.587 4.987 4.473 4.987 2.64 0 3.227-2.86 3.373-4.62v-168.809c0-7.26 5.867-13.2 13.126-13.2s13.2 5.94 13.2 13.2v97.237c0.073 1.1 0.44 3.887 3.74 3.887v0c3.373 0 3.74-2.787 3.813-3.887v-97.237c0-7.26 5.867-13.2 13.126-13.2 7.333 0 13.2 5.94 13.2 13.2v168.809c0.073 1.833 0.66 4.62 3.3 4.62 3.887 0 4.473-2.86 4.473-4.987v-56.319c0-5.060 4.107-9.166 9.166-9.166s9.166 4.107 9.166 9.166v65.558c0 16.5-12.54 29.919-28.673 31.386-0.513 0.073-1.1 0.147-1.76 0.147h-51.699c-0.66 0-1.247 0-1.76-0.147z" />
<glyph unicode="&#xe91c;" d="M324.932 355.162c-1.247 1.907-3.3 3.153-5.72 3.153-3.74 0-6.82-3.080-6.82-6.746 0-1.1 0.66-3.007 0.66-3.007l18.773-34.026c0 0 1.173-2.347 1.173-4.473v-73.038c0-5.133 4.107-9.166 9.166-9.166s9.166 4.107 9.166 9.166v28.819c0 0-0.513 4.107 2.787 4.107s2.787-4.107 2.787-4.107v-28.819c0-5.133 4.107-9.166 9.166-9.166s9.166 4.107 9.166 9.166v73.038c0 2.127 1.1 4.473 1.1 4.473l17.38 31.386c0 0 2.127 4.547 2.127 5.573 0 3.74-3.080 6.746-6.82 6.746-2.493 0-4.547-1.247-5.72-3.153h-0.073c-0.513-0.44-9.24-15.986-12.1-18.846-3.007-3.080-5.72-2.713-5.72-2.713h-22.513c0 0-2.713-0.293-5.793 2.713-2.933 3.007-11.586 18.48-12.173 18.92v0z" />
<glyph unicode="&#xe91d;" d="M354.117 345.409c10.34 0 18.626 8.36 18.626 18.626 0 10.34-8.286 18.626-18.626 18.626s-18.626-8.286-18.626-18.626c0-10.34 8.36-18.626 18.626-18.626z" />
<glyph unicode="&#xe91e;" d="M354.191 319.23l21.046-15.4 10.046-36.886h-62.185l10.046 36.886z" />
<glyph unicode="&#xe91f;" d="M495.574 790.238h-40.479v27.426c11 0 19.873 0.953 26.546 2.787s12.026 4.987 15.986 9.313c3.96 4.327 7.48 10.633 10.56 18.846h26.033v-246.394h-38.719v188.022z" />
<glyph unicode="&#xe920;" d="M1024 448c0-282.77-229.23-512-512-512s-512 229.23-512 512c0 282.77 229.23 512 512 512s512-229.23 512-512z" />
<glyph unicode="&#xe921;" d="M461.988 628.982c0 17.6 2.787 32.706 8.433 45.245s15.693 26.473 30.286 41.726c14.3 15.253 24.199 28.306 29.773 39.086 5.5 10.78 8.286 22.073 8.286 33.806 0 10.56-1.687 17.893-5.133 21.999-3.373 4.107-8.36 6.16-14.96 6.16-13.346 0-20.093-8.066-20.093-24.273v-26.399h-36.592v23.906c0 19.946 4.913 35.272 14.813 45.905 9.826 10.706 24.199 15.986 42.972 15.986s33.072-5.353 42.972-15.986c9.826-10.706 14.813-25.959 14.813-45.905 0-15.033-3.593-29.699-10.706-43.999-7.186-14.3-19.506-30.726-37.106-49.279-11.513-12.173-19.213-22.146-23.246-29.773-3.96-7.626-6.013-15.766-6.013-24.493v-5.28h73.551v-35.199h-112.050v26.766z" />
<glyph unicode="&#xe922;" d="M437.789 174.4v-12.026c0-0.073 0-0.147 0-0.293 0-0.073 0-0.22 0-0.293 0.147-2.933 2.567-5.353 5.573-5.427 0.073 0 0.073 0 0.147 0 0 0 0.073 0 0.147 0h140.943c0.073 0 0.073 0 0.147 0s0.073 0 0.147 0c3.080 0.073 5.5 2.567 5.573 5.647 0 0 0 0 0 0.073 0 0 0 0 0 0.073v13.566c79.345 26.033 138.743 90.344 151.869 168.662 0 0.147 0.073 0.293 0.073 0.44 0.073 0.293 0.073 0.513 0.073 0.807 0 3.153-2.567 5.72-5.72 5.72h-449.302c-3.153 0-5.72-2.567-5.72-5.72l0.293-2.567c13.713-79.051 74.798-143.73 155.756-168.662z" />
<glyph unicode="&#xe923;" d="M590.171 543.111c-1.833-2.64-45.245-65.118 0.953-115.644 21.193-23.173 19.359-43.632 13.346-57.419h29.626c6.013 20.386 3.52 45.979-20.533 72.305-34.026 37.252 0.44 87.558 0.953 88.364 4.107 5.72 1.907 13.126-4.84 16.573-6.746 3.3-15.4 1.467-19.506-4.18z" />
<glyph unicode="&#xe924;" d="M515.080 369.975h29.626c6.013 20.386 3.52 45.979-20.533 72.305-34.099 37.252 0.367 87.558 0.953 88.364 4.033 5.72 1.907 13.126-4.84 16.573-6.673 3.447-15.4 1.613-19.506-4.107-1.833-2.64-45.319-65.118 0.953-115.644 21.266-23.173 19.359-43.706 13.346-57.492z" />
<glyph unicode="&#xe925;" d="M411.463 543.111c-1.907-2.64-45.245-65.118 0.953-115.644 21.193-23.173 19.359-43.632 13.346-57.419h29.626c6.013 20.386 3.52 45.979-20.606 72.305-34.099 37.252 0.44 87.558 0.953 88.364 4.033 5.72 1.907 13.126-4.84 16.573-6.673 3.373-15.4 1.467-19.433-4.18z" />
<glyph unicode="&#xe926;" d="M1024 448c0-282.77-229.23-512-512-512s-512 229.23-512 512c0 282.77 229.23 512 512 512s512-229.23 512-512z" />
<glyph unicode="&#xe927;" d="M451.868 614.609c-9.753 10.56-14.593 25.666-14.593 45.392v20.093h36.592v-21.853c0-16.206 6.673-24.273 20.093-24.273 6.6 0 11.586 2.053 14.96 6.16s5.133 11.293 5.133 21.633v20.093c0 11.293-1.98 19.286-6.013 24.126-3.96 4.84-10.413 7.186-19.359 7.186h-13.053v35.199h14.080c7.773 0 13.566 1.98 17.453 6.013 3.887 3.96 5.793 10.706 5.793 20.093v17.966c0 8.433-1.76 14.666-5.28 18.626s-8.213 6.013-14.080 6.013c-12.466 0-18.626-7.626-18.626-22.879v-16.206h-36.592v13.053c0 19.726 4.84 34.832 14.593 45.392s23.759 15.84 42.092 15.84c18.553 0 32.632-5.207 42.239-15.693 9.606-10.413 14.446-25.519 14.446-45.245v-8.8c0-13.346-2.2-24.126-6.673-32.192s-11.366-13.933-20.753-17.453v-0.733c10.12-3.74 17.38-9.826 21.853-18.333 4.473-8.433 6.673-19.213 6.673-32.412v-21.853c0-19.726-4.913-34.832-14.593-45.245-9.753-10.413-24.126-15.693-43.119-15.693s-33.586 5.427-43.266 15.986z" />
<glyph unicode="&#xe928;" d="M798.433 343.356c0 24.053-15.4 43.559-38.792 43.559-11.66 0-25.739-12.833-33.439-20.679-7.626 7.846-20.826 20.679-32.486 20.679-23.393 0-39.746-19.506-39.746-43.559 0-12.026 4.767-22.879 12.393-30.799l59.912-59.985 59.838 59.912-0.073 0.073c7.626 7.846 12.393 18.773 12.393 30.799z" />
<glyph unicode="&#xe929;" d="M543.459 154.601c-0.22 0-0.44 0-0.587 0-4.547 0.293-8.286 3.667-9.093 8.14l-30.433 177.169-46.125-85.358c-2.053-3.74-6.233-5.72-10.34-4.987-4.18 0.733-7.406 4.107-7.993 8.286l-19.579 136.763-35.786-80.445c-1.54-3.52-5.060-5.867-9.020-5.867h-139.11c-5.427 0-9.826 4.4-9.826 9.826s4.4 9.826 9.826 9.826h132.73l47.079 105.744c1.76 3.96 6.013 6.38 10.34 5.72 4.327-0.587 7.773-4.033 8.36-8.36l20.166-141.016 45.465 84.258c1.98 3.667 6.087 5.72 10.266 5.060s7.406-3.887 8.14-8.066l28.159-164.116 102.664 341.064c1.173 3.887 4.62 6.673 8.653 6.966s7.846-1.907 9.606-5.5l54.045-111.977c2.347-4.913 0.293-10.78-4.62-13.126s-10.78-0.293-13.126 4.62l-43.046 89.244-107.431-356.831c-1.247-4.18-5.060-7.040-9.386-7.040z" />
<glyph unicode="&#xe92a;" d="M1024 448c0-282.77-229.23-512-512-512s-512 229.23-512 512c0 282.77 229.23 512 512 512s512-229.23 512-512z" />
<glyph unicode="&#xe92b;" d="M504.154 646.948h-73.918v35.199l70.398 166.462h42.239v-166.462h18.333v-35.199h-18.333v-44.732h-38.719v44.732zM504.154 682.147v96.064h-0.733l-37.986-96.064h38.719z" />
<glyph unicode="&#xe92c;" d="M459.275 448.367l-153.189 88.511v-286.213l153.189-46.272z" />
<glyph unicode="&#xe92d;" d="M476.141 447.78v-243.46l154.216 46.345v286.213z" />
<glyph unicode="&#xe92e;" d="M718.868 255.725h-4.473l18.113-63.358 18.113 63.358v254.68h-36.226v-254.68z" />
<glyph unicode="&#xe92f;" d="M663.283 524.558l-16.426 12.98v-294.646l-170.276-54.999h-17.306l-169.469 47.299v302.345l-16.426-12.98v-300.879l185.089-51.259h18.92l170.789 54.265 15.106 4.4z" />
<glyph unicode="&#xe930;" d="M750.62 544.137c0 10.046-8.14 18.113-18.113 18.113-10.046 0-18.113-8.14-18.113-18.113v-19.506h36.226v19.506z" />
<glyph unicode="&#xe931;" d="M1024 448c0-282.77-229.23-512-512-512s-512 229.23-512 512c0 282.77 229.23 512 512 512s512-229.23 512-512z" />
<glyph unicode="&#xe932;" d="M481.787 614.756c-9.826 10.706-14.813 25.959-14.813 45.905v19.359h36.592v-22.146c0-15.986 6.673-23.906 20.093-23.906s20.093 7.993 20.093 23.906v55.292c0 16.206-6.673 24.273-20.093 24.273s-20.093-8.066-20.093-24.273v-2.127h-36.592l7.040 137.643h102.077v-35.199h-67.612l-3.080-58.812h0.733c7.26 11.953 18.406 17.966 33.439 17.966 14.080 0 24.786-4.84 32.046-14.446s10.926-23.613 10.926-41.872v-55.585c0-19.946-4.913-35.272-14.813-45.905-9.826-10.706-24.199-15.986-42.972-15.986-18.773-0.073-33.146 5.207-42.972 15.913z" />
<glyph unicode="&#xe933;" d="M679.196 536.071h-106.257c-0.733 0-1.32-0.587-1.32-1.32v-35.272c0-0.733 0.587-1.393 1.32-1.393h42.312l-46.932-46.932c-23.613 18.553-53.385 29.699-85.724 29.699-76.705 0-139.11-62.405-139.11-139.11 0-70.618 52.872-129.063 121.144-137.863v-40.626h-41.872c-0.807 0-1.393-0.587-1.393-1.32v-37.912c0-0.733 0.587-1.32 1.393-1.32h41.872v-40.039c0-0.733 0.587-1.32 1.32-1.32h37.839c0.733 0 1.393 0.587 1.393 1.32v40.039h41.872c0.733 0 1.393 0.587 1.393 1.32v37.839c0 0.733-0.587 1.32-1.393 1.32h-41.872v41.286c65.998 10.853 116.524 68.198 116.524 137.203 0 29.773-9.46 57.345-25.373 80.005l46.272 46.272v-39.526c0-0.733 0.587-1.32 1.393-1.32h35.272c0.733 0 1.393 0.587 1.393 1.32v106.257c-0.147 0.733-0.733 1.393-1.467 1.393zM482.594 239.372c-56.465 0-102.371 45.905-102.371 102.371s45.905 102.371 102.371 102.371 102.371-45.905 102.371-102.371c0-56.465-45.979-102.371-102.371-102.371z" />
<glyph unicode="&#xe934;" d="M545.072 383.762h-124.15c-0.733 0-1.32-0.587-1.32-1.173v-30.066c0-0.733 0.587-1.247 1.32-1.247h124.15c0.733 0 1.393 0.513 1.393 1.247v30.066c0 0.587-0.587 1.173-1.393 1.173z" />
<glyph unicode="&#xe935;" d="M545.072 330.083h-124.15c-0.733 0-1.32-0.587-1.32-1.247v-30.066c0-0.66 0.587-1.247 1.32-1.247h124.15c0.733 0 1.393 0.513 1.393 1.247v30.066c0 0.66-0.587 1.247-1.393 1.247z" />
<glyph unicode="&#xe936;" d="M1024 448c0-282.77-229.23-512-512-512s-512 229.23-512 512c0 282.77 229.23 512 512 512s512-229.23 512-512z" />
<glyph unicode="&#xe937;" d="M669.736 542.231c-0.733 0.807-1.687 1.247-2.787 1.247h-309.972c-1.1 0-2.053-0.44-2.787-1.247-0.66-0.88-0.953-1.907-0.733-2.933l52.065-314.958c0.293-1.76 1.833-3.080 3.593-3.080h63.945l4.327-51.259h-26.913l62.625-62.552 62.698 62.698h-26.913l4.327 51.185h65.045c1.833 0 3.3 1.32 3.593 3.080l48.692 314.885c0.22 1.1-0.147 2.127-0.807 2.933zM549.986 290.117c0 0-14.080-14.446-36.959-12.906-22.953-1.54-37.032 12.906-37.032 12.906-23.246 23.173-14.96 52.065-6.82 66.952 4.987 9.313 40.699 62.918 43.706 67.465v0.367l0.147-0.147 0.147 0.147v-0.367c3.007-4.547 38.719-58.152 43.706-67.465 7.993-14.886 16.28-43.779-6.893-66.952zM648.25 475.939c-8.433 3.74-19.066 2.347-29.259-1.76-38.499-15.62-64.605-21.193-105.084-8.506-25.446 7.993-49.279 24.639-77.511 14.52-18.7-6.746-36.079-13.126-57.272-12.98l-12.246 62.625h290.172l-8.8-53.899z" />
<glyph unicode="&#xe938;" d="M452.895 614.902c-10.12 10.78-15.106 26.033-15.106 45.759v127.45c0 42.679 19.726 64.092 59.105 64.092 18.773 0 33.072-5.353 42.972-15.986 9.826-10.706 14.813-25.959 14.813-45.905v-4.547h-36.592v7.040c0 16.206-6.673 24.273-20.093 24.273-7.26 0-12.686-2.2-16.206-6.673s-5.28-12.32-5.28-23.613v-47.152h0.733c6.82 14.3 18.553 21.486 35.199 21.486 14.080 0 24.786-4.84 32.046-14.446s10.926-23.613 10.926-41.872v-43.999c0-19.726-5.060-34.979-15.106-45.759-10.12-10.78-24.639-16.206-43.632-16.206s-33.659 5.28-43.779 16.060zM516.62 657.875v43.632c0 16.206-6.673 24.273-20.093 24.273s-20.093-8.066-20.093-24.273v-43.632c0-15.986 6.673-23.906 20.093-23.906s20.093 7.92 20.093 23.906z" />
<glyph unicode="&#xe939;" d="M1024 448c0-282.77-229.23-512-512-512s-512 229.23-512 512c0 282.77 229.23 512 512 512s512-229.23 512-512z" />
<glyph unicode="&#xe93a;" d="M507.893 813.484h-78.171v35.199h116.157v-33.806l-60.572-212.588h-39.452l62.038 211.195z" />
<glyph unicode="&#xe93b;" d="M512 451.153c-69.152 0-125.177-56.025-125.177-125.25s56.099-125.25 125.177-125.25c69.152 0 125.177 56.025 125.177 125.25s-56.025 125.25-125.177 125.25zM502.687 401.728c0 4.18 4.18 8.726 9.313 8.726s9.313-4.62 9.313-8.726v-43.046c0-4.18-4.18-8.726-9.313-8.726s-9.313 4.547-9.313 8.726v43.046zM512 261.812c-35.932 0-65.118 29.186-65.118 65.118 0 29.259 19.286 53.972 45.759 62.185v-24.273c-13.786-7.040-23.319-21.339-23.319-37.912 0-23.539 19.066-42.606 42.606-42.606s42.606 19.066 42.606 42.606c0 16.646-9.533 30.946-23.393 37.986v24.199c26.546-8.213 45.905-32.926 45.905-62.258 0.073-35.932-29.113-65.045-65.045-65.045z" />
<glyph unicode="&#xe93c;" d="M368.27 327.076c0 5.647-5.060 10.266-9.606 10.266h-54.852c-4.62 0-9.68-4.62-9.68-10.266 0-5.72 5.060-10.34 9.68-10.34h54.852c4.547 0 9.606 4.62 9.606 10.34z" />
<glyph unicode="&#xe93d;" d="M729.941 327.076c0 5.647-5.060 10.266-9.606 10.266h-54.852c-4.62 0-9.68-4.62-9.68-10.266 0-5.72 5.060-10.34 9.68-10.34h54.852c4.547 0 9.606 4.62 9.606 10.34z" />
<glyph unicode="&#xe93e;" d="M512 109.135c5.647 0 10.266 5.060 10.266 9.606v54.852c0 4.62-4.62 9.68-10.266 9.68s-10.34-5.060-10.34-9.68v-54.852c0-4.62 4.693-9.606 10.34-9.606z" />
<glyph unicode="&#xe93f;" d="M701.122 218.766c2.787 4.913 0.733 11.44-3.227 13.713l-47.592 27.206c-4.033 2.273-10.706 0.807-13.493-4.107-2.86-4.913-0.733-11.44 3.3-13.786l47.592-27.206c3.96-2.273 10.633-0.733 13.42 4.18z" />
<glyph unicode="&#xe940;" d="M403.763 137.881c4.913-2.787 11.44-0.733 13.713 3.227l27.206 47.592c2.273 4.033 0.807 10.706-4.107 13.493-4.913 2.86-11.44 0.733-13.786-3.3l-27.206-47.592c-2.273-3.96-0.733-10.633 4.18-13.42z" />
<glyph unicode="&#xe941;" d="M620.677 138.101c4.913 2.86 6.38 9.46 4.107 13.42l-27.353 47.519c-2.273 4.033-8.8 6.087-13.786 3.3-4.913-2.86-6.453-9.533-4.107-13.566l27.353-47.519c2.273-3.887 8.8-5.94 13.786-3.153z" />
<glyph unicode="&#xe942;" d="M323.098 218.399c2.86-4.913 9.46-6.38 13.42-4.107l47.519 27.353c4.033 2.273 6.16 8.8 3.3 13.713s-9.533 6.453-13.566 4.107l-47.519-27.353c-3.96-2.273-6.013-8.8-3.153-13.713z" />
<glyph unicode="&#xe943;" d="M512 470.806c5.647 0 10.266 5.060 10.266 9.606v54.852c0 4.62-4.62 9.68-10.266 9.68s-10.34-5.060-10.34-9.68v-54.852c0-4.62 4.693-9.606 10.34-9.606z" />
<glyph unicode="&#xe944;" d="M387.263 398.428c2.86 4.913 0.733 11.44-3.227 13.713l-47.592 27.206c-4.033 2.273-10.706 0.807-13.493-4.107-2.86-4.913-0.733-11.44 3.3-13.786l47.592-27.206c3.887-2.273 10.56-0.733 13.42 4.18z" />
<glyph unicode="&#xe945;" d="M583.425 451.813c4.913-2.86 11.44-0.733 13.713 3.227l27.206 47.592c2.273 4.033 0.807 10.706-4.107 13.493-4.913 2.86-11.44 0.733-13.786-3.3l-27.206-47.592c-2.273-3.96-0.733-10.633 4.18-13.42z" />
<glyph unicode="&#xe946;" d="M440.355 451.667c4.913 2.86 6.38 9.46 4.107 13.493l-27.353 47.519c-2.273 4.033-8.8 6.087-13.713 3.3-4.913-2.86-6.453-9.533-4.107-13.566l27.353-47.519c2.273-4.033 8.8-6.087 13.713-3.227z" />
<glyph unicode="&#xe947;" d="M636.663 398.648c2.86-4.913 9.46-6.38 13.42-4.107l47.519 27.353c4.033 2.273 6.16 8.8 3.3 13.713s-9.533 6.453-13.566 4.107l-47.519-27.353c-3.96-2.2-6.013-8.726-3.153-13.713z" />
<glyph unicode="&#xe948;" d="M1024 448c0-282.77-229.23-512-512-512s-512 229.23-512 512c0 282.77 229.23 512 512 512s512-229.23 512-512z" />
<glyph unicode="&#xe949;" d="M450.622 614.389c-10.413 10.413-15.693 25.519-15.693 45.245v21.853c0 12.173 1.98 22.439 6.013 30.799 3.96 8.36 10.413 14.813 19.359 19.506v0.733c-8.213 4.473-14.226 10.633-18.113 18.48s-5.793 17.893-5.793 30.066v10.193c0 19.726 5.133 34.759 15.326 45.245 10.193 10.413 24.786 15.693 43.852 15.693 18.993 0 33.586-5.207 43.852-15.693 10.193-10.413 15.326-25.519 15.326-45.245v-10.193c0-23.466-7.993-39.672-23.906-48.545v-0.733c8.946-4.693 15.326-11.22 19.359-19.506 3.96-8.36 6.013-18.626 6.013-30.799v-21.853c0-19.726-5.207-34.832-15.693-45.245-10.413-10.413-25.373-15.693-44.879-15.693s-34.612 5.28-45.025 15.693zM517.353 661.761v23.613c0 18.553-7.26 27.793-21.853 27.793s-21.853-9.24-21.853-27.793v-23.613c0-18.553 7.26-27.793 21.853-27.793s21.853 9.24 21.853 27.793zM515.887 773.005v19.359c0 16.426-6.82 24.639-20.386 24.639s-20.386-8.213-20.386-24.639v-19.359c0-16.426 6.82-24.639 20.386-24.639s20.386 8.213 20.386 24.639z" />
<glyph unicode="&#xe94a;" d="M662.623 443.527l-78.831-74.945c-2.933-2.933-4.473-5.133-4.473-11.293v-210.168c0-2.493 1.98-4.473 4.473-4.473h81.471c2.493 0 4.473 1.98 4.473 4.473v294.499c-0.073 2.493-1.98 7.040-7.113 1.907z" />
<glyph unicode="&#xe94b;" d="M435.515 345.849l-78.905-75.018c-2.933-2.933-4.473-5.133-4.473-11.22v-112.49c0-2.42 1.98-4.473 4.473-4.473h81.471c2.493 0 4.473 1.98 4.473 4.473v196.822c0 2.493-1.98 7.040-7.040 1.907z" />
<glyph unicode="&#xe94c;" d="M698.408 534.531c0 0.587-0.147 1.247-0.66 1.687-0.44 0.44-0.953 0.587-1.467 0.66h-1.1l-60.352-13.64-1.1-0.147c-0.44-0.073-0.88-0.293-1.173-0.587-0.88-0.88-0.88-2.347 0-3.227l14.446-14.446-136.763-136.91-63.212 63.212c-0.733 0.733-1.833 0.733-2.567 0l-17.16-17.16c0 0 0 0 0 0l-101.197-101.271c-0.733-0.733-0.733-1.833 0-2.567l17.16-17.16c0.733-0.733 1.833-0.733 2.567 0l100.024 99.951 45.832-45.832c0.073-0.073 0.073-0.147 0.147-0.22l17.16-17.16c0.733-0.733 1.833-0.733 2.567 0l155.243 155.243 14.446-14.446c0.88-0.88 2.347-0.88 3.227 0 0.44 0.44 0.66 0.953 0.66 1.467v0.22l13.273 61.598v0.733z" />
<glyph unicode="&#xe94d;" d="M549.472 332.723l-38.132-38.499c-0.733-0.587-1.76-0.587-2.42 0.073l-34.539 35.199c-6.307 6.307-7.7 1.173-7.7-1.247v-181.129c0-2.493 1.98-4.473 4.473-4.473h81.471c2.493 0 4.473 1.98 4.473 4.473v184.135c-0.073 2.493-1.98 7.040-7.626 1.467z" />
<glyph unicode="&#xe94e;" d="M1024 448c0-282.77-229.23-512-512-512s-512 229.23-512 512c0 282.77 229.23 512 512 512s512-229.23 512-512z" />
<glyph unicode="&#xe94f;" d="M443.802 614.756c-9.826 10.706-14.813 25.959-14.813 45.905v4.547h36.592v-7.040c0-16.206 6.673-24.273 20.093-24.273 7.26 0 12.686 2.2 16.206 6.673s5.28 12.32 5.28 23.613v47.225h-0.733c-6.82-14.3-18.553-21.486-35.199-21.486-14.080 0-24.786 4.84-32.046 14.446s-10.926 23.613-10.926 41.872v43.999c0 19.726 5.060 34.979 15.106 45.759 10.12 10.78 24.639 16.206 43.632 16.206s33.586-5.427 43.632-16.206c10.12-10.78 15.106-26.033 15.106-45.759v-127.45c0-42.679-19.726-64.092-59.105-64.092-18.626 0.073-32.926 5.353-42.826 16.060zM507.16 749.392v43.632c0 15.986-6.673 23.906-20.093 23.906s-20.093-7.993-20.093-23.906v-43.632c0-16.206 6.673-24.273 20.093-24.273s20.093 8.066 20.093 24.273z" />
<glyph unicode="&#xe950;" d="M706.695 284.104l-92.618 53.459v106.917c0 2.273-1.173 4.327-3.153 5.5l-95.771 55.292c-1.98 1.1-4.327 1.1-6.307 0l-95.771-55.292c-1.98-1.1-3.153-3.227-3.153-5.5v-106.917l-92.618-53.459c-1.98-1.1-3.153-3.227-3.153-5.5v-110.584c0-2.273 1.173-4.327 3.153-5.5l95.771-55.292c0.953-0.587 2.053-0.88 3.153-0.88s2.2 0.293 3.153 0.88l92.618 53.459 92.618-53.459c0.953-0.587 2.053-0.88 3.153-0.88s2.2 0.293 3.153 0.88l95.771 55.292c1.98 1.1 3.153 3.227 3.153 5.5v110.584c0 2.273-1.173 4.327-3.153 5.5zM505.693 178.947l-76.851 44.366 76.851 44.366v-88.731zM595.158 333.896l-76.851-44.366v88.731l76.851-44.366zM505.693 289.531l-76.851 44.366 76.851 44.366v-88.731zM524.613 278.604l83.158 47.959 83.158-47.959-83.158-48.032-83.158 48.032zM601.464 344.823l-76.851 44.366 76.851 44.366v-88.731zM499.387 389.188l-76.851-44.366v88.731l76.851-44.366zM409.923 123.655l-83.158 47.959v96.064l83.158-48.032v-95.991zM422.536 123.655v88.731l76.851-44.366-76.851-44.366zM697.235 171.614l-83.158-47.959v95.991l83.158 48.032v-96.064z" />
<glyph unicode="&#xe951;" d="M1024 448c0-282.77-229.23-512-512-512s-512 229.23-512 512c0 282.77 229.23 512 512 512s512-229.23 512-512z" />
<glyph unicode="&#xe952;" d="M423.342 790.238h-40.479v27.426c11 0 19.873 0.953 26.546 2.787s12.026 4.987 15.986 9.313c3.96 4.327 7.48 10.633 10.56 18.846h26.033v-246.394h-38.719v188.022z" />
<glyph unicode="&#xe953;" d="M522.266 614.902c-10.12 10.78-15.106 26.033-15.106 45.759v129.577c0 19.726 5.060 34.979 15.106 45.759 10.12 10.78 24.639 16.206 43.632 16.206s33.586-5.427 43.632-16.206c10.12-10.78 15.106-26.033 15.106-45.759v-129.503c0-19.726-5.060-34.979-15.106-45.759s-24.639-16.206-43.632-16.206c-18.993 0-33.586 5.353-43.632 16.133zM585.991 658.241v134.416c0 16.206-6.673 24.273-20.093 24.273-13.346 0-20.093-8.066-20.093-24.273v-134.49c0-16.206 6.673-24.273 20.093-24.273 13.346 0.073 20.093 8.14 20.093 24.346z" />
<glyph unicode="&#xe954;" d="M590.611 279.044h-157.223c-0.953 0-1.687-0.88-1.687-1.907v-47.225c0-1.1 0.733-1.907 1.687-1.907h157.223c0.953 0 1.687 0.807 1.687 1.907v47.225c0.073 1.1-0.733 1.907-1.687 1.907z" />
<glyph unicode="&#xe955;" d="M590.611 379.655h-157.223c-0.953 0-1.687-0.88-1.687-1.907v-47.225c0-1.1 0.733-1.907 1.687-1.907h157.223c0.953 0 1.687 0.88 1.687 1.907v47.225c0.073 1.027-0.733 1.907-1.687 1.907z" />
<glyph unicode="&#xe956;" d="M588.411 451.080l-75.458 75.458c-0.513 0.513-1.32 0.513-1.833 0l-75.531-75.458c-0.807-0.807-0.22-2.2 0.953-2.2h150.989c1.1-0.073 1.687 1.32 0.88 2.2z" />
<glyph unicode="&#xe957;" d="M659.249 227.419l75.458 75.458c0.513 0.513 0.513 1.32 0 1.833l-75.458 75.458c-0.807 0.807-2.2 0.22-2.2-0.953v-150.989c0-1.1 1.393-1.687 2.2-0.807z" />
<glyph unicode="&#xe958;" d="M435.589 156.508l75.458-75.458c0.513-0.513 1.32-0.513 1.833 0l75.458 75.458c0.807 0.807 0.22 2.2-0.953 2.2h-150.843c-1.173 0.073-1.76-1.393-0.953-2.2z" />
<glyph unicode="&#xe959;" d="M364.751 380.168l-75.531-75.458c-0.513-0.513-0.513-1.32 0-1.833l75.531-75.458c0.807-0.807 2.2-0.22 2.2 0.953v150.916c0 1.173-1.393 1.76-2.2 0.88z" />
<glyph unicode="&#xe95a;" d="M1024 448c0-282.77-229.23-512-512-512s-512 229.23-512 512c0 282.77 229.23 512 512 512s512-229.23 512-512z" />
<glyph unicode="&#xe95b;" d="M416.009 790.238h-40.479v27.426c11 0 19.873 0.953 26.546 2.787s12.026 4.987 15.986 9.313c3.96 4.327 7.48 10.633 10.56 18.846h26.033v-246.394h-38.719v188.022z" />
<glyph unicode="&#xe95c;" d="M556.805 790.238h-40.479v27.426c11 0 19.873 0.953 26.546 2.787s12.026 4.987 15.986 9.313c3.96 4.327 7.48 10.633 10.56 18.846h26.033v-246.394h-38.719v188.022z" />
<glyph unicode="&#xe95d;" d="M248.227 214.659h118.43c1.613 0 2.933 1.32 2.933 2.933 0 0.733-0.293 1.393-0.733 1.907l-0.147 0.147-58.958 76.265-0.587 0.66c-0.513 0.587-1.32 0.953-2.127 0.953-0.733 0-1.393-0.293-1.907-0.733l-0.367-0.44-0.587-0.587-58.372-76.558c-0.293-0.44-0.513-1.027-0.513-1.613 0-1.613 1.32-2.933 2.933-2.933z" />
<glyph unicode="&#xe95e;" d="M366.29 203.953h-118.65c-1.613 0-2.86-1.32-2.86-2.933v-92.838c0-1.613 1.32-2.933 2.86-2.933h38.206v58.445c0 1.613 1.32 2.933 2.933 2.933h35.419c1.613 0 2.933-1.32 2.933-2.933v-58.445h39.232c1.613 0 2.933 1.32 2.933 2.933v92.838c-0.073 1.613-1.393 2.933-3.007 2.933z" />
<glyph unicode="&#xe95f;" d="M776.433 228.226h-117.477c-1.613 0-2.86-1.247-2.86-2.787v-118.577c0-1.54 1.247-2.787 2.86-2.787h117.477c1.613 0 2.86 1.247 2.86 2.787v118.577c0 1.54-1.32 2.787-2.86 2.787zM712.121 150.788c0-1.54-1.247-2.787-2.86-2.787h-35.126c-1.613 0-2.86 1.247-2.86 2.787v21.339c0 1.54 1.32 2.787 2.86 2.787h35.126c1.613 0 2.86-1.247 2.86-2.787v-21.339zM712.121 190.24c0-1.54-1.247-2.787-2.86-2.787h-35.126c-1.613 0-2.86 1.247-2.86 2.787v21.339c0 1.54 1.32 2.787 2.86 2.787h35.126c1.613 0 2.86-1.247 2.86-2.787v-21.339zM765.8 150.788c0-1.54-1.32-2.787-2.86-2.787h-35.052c-1.613 0-2.86 1.247-2.86 2.787v21.339c0 1.54 1.247 2.787 2.86 2.787h35.052c1.613 0 2.86-1.247 2.86-2.787v-21.339zM765.8 190.24c0-1.54-1.32-2.787-2.86-2.787h-35.052c-1.613 0-2.86 1.247-2.86 2.787v21.339c0 1.54 1.247 2.787 2.86 2.787h35.052c1.613 0 2.86-1.247 2.86-2.787v-21.339z" />
<glyph unicode="&#xe960;" d="M503.347 503.512h-114.91c-1.54 0-2.787-1.247-2.787-2.86v-392.836c0-1.54 1.247-2.787 2.787-2.787h114.91c1.54 0 2.86 1.247 2.86 2.787v392.91c0 1.54-1.32 2.787-2.86 2.787zM435.002 149.834c0-0.88-0.66-1.54-1.54-1.54h-26.326c-0.807 0-1.54 0.66-1.54 1.54v29.333c0 0.807 0.66 1.467 1.54 1.467h26.326c0.807 0 1.54-0.66 1.54-1.467v-29.333zM435.002 217.226c0-0.88-0.66-1.467-1.54-1.467h-26.326c-0.807 0-1.54 0.66-1.54 1.467v29.333c0 0.88 0.66 1.54 1.54 1.54h26.326c0.807 0 1.54-0.66 1.54-1.54v-29.333zM435.002 284.544c0-0.807-0.66-1.54-1.54-1.54h-26.326c-0.807 0-1.54 0.66-1.54 1.54v29.333c0 0.807 0.66 1.54 1.54 1.54h26.326c0.807 0 1.54-0.66 1.54-1.54v-29.333zM435.002 351.863c0-0.807-0.66-1.54-1.54-1.54h-26.326c-0.807 0-1.54 0.66-1.54 1.54v29.333c0 0.807 0.66 1.467 1.54 1.467h26.326c0.807 0 1.54-0.66 1.54-1.467v-29.333zM435.002 419.254c0-0.807-0.66-1.54-1.54-1.54h-26.326c-0.807 0-1.54 0.66-1.54 1.54v29.333c0 0.807 0.66 1.54 1.54 1.54h26.326c0.807 0 1.54-0.66 1.54-1.54v-29.333zM486.627 149.834c0-0.88-0.66-1.54-1.54-1.54h-26.326c-0.807 0-1.467 0.66-1.467 1.54v29.333c0 0.807 0.66 1.467 1.467 1.467h26.326c0.807 0 1.54-0.66 1.54-1.467v-29.333zM486.627 217.226c0-0.88-0.66-1.467-1.54-1.467h-26.326c-0.807 0-1.467 0.66-1.467 1.467v29.333c0 0.88 0.66 1.54 1.467 1.54h26.326c0.807 0 1.54-0.66 1.54-1.54v-29.333zM486.627 284.544c0-0.807-0.66-1.54-1.54-1.54h-26.326c-0.807 0-1.467 0.66-1.467 1.54v29.333c0 0.807 0.66 1.54 1.467 1.54h26.326c0.807 0 1.54-0.66 1.54-1.54v-29.333zM486.627 351.863c0-0.807-0.66-1.54-1.54-1.54h-26.326c-0.807 0-1.467 0.66-1.467 1.54v29.333c0 0.807 0.66 1.467 1.467 1.467h26.326c0.807 0 1.54-0.66 1.54-1.467v-29.333zM486.627 419.254c0-0.807-0.66-1.54-1.54-1.54h-26.326c-0.807 0-1.467 0.66-1.467 1.54v29.333c0 0.807 0.66 1.54 1.467 1.54h26.326c0.807 0 1.54-0.66 1.54-1.54v-29.333z" />
<glyph unicode="&#xe961;" d="M779.146 240.179c0-1.32-1.027-2.347-2.347-2.347h-118.21c-1.32 0-2.347 1.027-2.347 2.347v23.613c0 1.32 1.1 2.347 2.347 2.347h118.21c1.32 0 2.347-1.1 2.347-2.347v-23.613z" />
<glyph unicode="&#xe962;" d="M642.237 429.3c-0.367 1.247-1.467 2.2-2.86 2.2-0.587 0-1.173-0.22-1.613-0.513-0.073-0.073-0.147-0.073-0.22-0.147l-0.953-1.247-113.444-143.95c-0.587-0.587-0.953-1.393-0.953-2.273v-176.142c0-1.54 1.247-2.787 2.787-2.787h114.837c1.54 0 2.787 1.247 2.787 2.787v320.972c-0.147 0.367-0.22 0.807-0.367 1.1zM594.645 351.496l0.807 1.027c7.7 9.9 20.753 25.959 27.133 33.732l0.807 1.027c0.587 0.733 1.54 1.173 2.493 1.173 1.54 0 2.787-1.173 3.153-2.64v-36.226c0-1.76-1.393-3.153-3.080-3.227-0.073 0-0.073 0-0.147 0s-0.073 0-0.147 0h-28.233c-0.073 0-0.073 0-0.147 0s-0.073 0-0.147 0c-1.76 0.073-3.153 1.467-3.153 3.227 0.073 0.733 0.293 1.393 0.66 1.907zM576.752 150.861c0-1.54-1.247-2.787-2.787-2.787h-34.246c-1.54 0-2.787 1.247-2.787 2.787v21.413c0 1.54 1.247 2.787 2.787 2.787h34.246c1.54 0 2.787-1.247 2.787-2.787v-21.413zM576.752 190.46c0-1.54-1.247-2.787-2.787-2.787h-34.246c-1.54 0-2.787 1.247-2.787 2.787v21.413c0 1.54 1.247 2.787 2.787 2.787h34.246c1.54 0 2.787-1.247 2.787-2.787v-21.413zM576.752 230.059c0-1.54-1.247-2.787-2.787-2.787h-34.246c-1.54 0-2.787 1.247-2.787 2.787v21.486c0 1.54 1.247 2.787 2.787 2.787h34.246c1.54 0 2.787-1.247 2.787-2.787v-21.486zM576.898 316.883v-47.225c0-1.54-1.247-2.787-2.787-2.787h-34.246c-1.54 0-2.787 1.247-2.787 2.787v5.94c0 0.367 0.073 0.733 0.22 1.027 0.073 0.147 0.073 0.147 0.147 0.293s0.147 0.293 0.22 0.367c0.073 0.147 0.22 0.293 0.293 0.44 4.4 6.233 24.126 30.579 32.412 40.772l0.807 1.027c0.587 0.733 1.54 1.173 2.493 1.173 1.54 0 2.86-1.173 3.153-2.64v-1.173zM629.184 150.861c0-1.54-1.247-2.787-2.787-2.787h-34.246c-1.54 0-2.787 1.247-2.787 2.787v21.413c0 1.54 1.247 2.787 2.787 2.787h34.246c1.54 0 2.787-1.247 2.787-2.787v-21.413zM629.184 190.46c0-1.54-1.247-2.787-2.787-2.787h-34.246c-1.54 0-2.787 1.247-2.787 2.787v21.413c0 1.54 1.247 2.787 2.787 2.787h34.246c1.54 0 2.787-1.247 2.787-2.787v-21.413zM629.184 230.059c0-1.54-1.247-2.787-2.787-2.787h-34.246c-1.54 0-2.787 1.247-2.787 2.787v21.486c0 1.54 1.247 2.787 2.787 2.787h34.246c1.54 0 2.787-1.247 2.787-2.787v-21.486zM629.184 269.731c0-1.54-1.247-2.787-2.787-2.787h-34.246c-1.54 0-2.787 1.247-2.787 2.787v21.413c0 1.54 1.247 2.787 2.787 2.787h34.246c1.54 0 2.787-1.247 2.787-2.787v-21.413zM629.184 309.33c0-1.54-1.247-2.787-2.787-2.787h-34.246c-1.54 0-2.787 1.247-2.787 2.787v21.413c0 1.54 1.247 2.787 2.787 2.787h34.246c1.54 0 2.787-1.247 2.787-2.787v-21.413z" />
<glyph unicode="&#xe963;" d="M1024 448c0-282.77-229.23-512-512-512s-512 229.23-512 512c0 282.77 229.23 512 512 512s512-229.23 512-512z" />
<glyph unicode="&#xe964;" d="M423.342 790.238h-40.479v27.426c11 0 19.873 0.953 26.546 2.787s12.026 4.987 15.986 9.313c3.96 4.327 7.48 10.633 10.56 18.846h26.033v-246.394h-38.719v188.022z" />
<glyph unicode="&#xe965;" d="M509.213 628.982c0 17.6 2.787 32.706 8.433 45.245s15.693 26.473 30.286 41.726c14.3 15.253 24.199 28.306 29.773 39.086 5.5 10.78 8.286 22.073 8.286 33.806 0 10.56-1.687 17.893-5.133 21.999-3.373 4.107-8.36 6.16-14.96 6.16-13.346 0-20.093-8.066-20.093-24.273v-26.399h-36.592v23.906c0 19.946 4.913 35.272 14.813 45.905 9.826 10.706 24.199 15.986 42.972 15.986s33.072-5.353 42.972-15.986c9.826-10.706 14.813-25.959 14.813-45.905 0-15.033-3.593-29.699-10.706-43.999-7.186-14.3-19.506-30.726-37.106-49.279-11.513-12.173-19.213-22.146-23.246-29.773-3.96-7.626-6.013-15.766-6.013-24.493v-5.28h73.551v-35.199h-112.050v26.766z" />
<glyph unicode="&#xe966;" d="M732.801 410.894c-37.766 29.773-87.704 30.433-106.037 26.033l-2.127-0.513c-21.119-4.987-54.705-13.273-94.011-62.038-0.22-0.293-0.44-0.513-0.66-0.807l-0.513-0.587c-0.367-0.513-0.66-1.173-0.66-1.907 0-0.587 0.147-1.1 0.44-1.613l0.953-1.54c4.913-8.286 11.146-18.92 16.426-28.673 0.073-0.073 0.073-0.147 0.147-0.293 0.587-1.1 1.687-1.833 3.007-1.833 0.88 0 1.76 0.367 2.347 0.953 0.22 0.293 0.513 0.66 0.733 1.027 34.906 48.252 62.332 54.925 80.885 59.252l2.2 0.513c9.606 2.347 46.272 2.2 72.671-18.7 20.606-16.28 31.093-42.239 31.093-76.998 0-58.445-28.453-81.251-52.285-90.124-36.959-13.786-72.378 4.62-72.598 4.767l-1.613 0.733c-20.313 8.8-50.599 27.133-79.125 84.478-57.492 115.497-105.671 126.423-137.496 133.61l-1.687 0.367c-14.52 3.3-64.825 5.573-104.424-25.959-20.679-16.5-45.319-48.545-45.319-107.651 0-36.006 7.406-59.765 26.399-84.771 4.18-5.72 46.785-60.425 129.137-44.659 13.2 2.567 31.019 8.8 50.672 23.539l18.113-16.353c1.173-1.1 3.080-0.953 4.18 0.22 0.513 0.587 0.733 1.247 0.733 1.98v0.22l13.053 80.445v0.88c0 0.807-0.367 1.613-0.953 2.127-0.513 0.513-1.247 0.733-1.907 0.733l-0.587-0.073-0.88-0.073-77.071-21.559-1.393-0.22c-0.587-0.147-1.1-0.367-1.467-0.88-1.1-1.247-1.027-3.080 0.22-4.18l0.88-0.88 17.233-15.62c-11.146-7.186-20.826-10.486-28.306-11.953-59.618-11.366-89.024 27.646-90.124 29.186l-0.44 0.587c-13.86 18.186-18.48 33.586-18.48 61.232 0 34.906 10.266 60.865 30.579 77.071 25.739 20.533 61.305 20.679 71.351 18.406l1.76-0.367c26.106-5.94 61.818-14.006 111.024-112.857 25.593-51.332 57.638-84.918 97.897-102.591 5.133-2.64 29.626-14.226 61.378-14.226 13.273 0 27.866 2.053 42.752 7.553 23.319 8.726 77.731 38.499 77.731 126.863 0.147 58.958-24.859 91.151-45.832 107.724z" />
<glyph unicode="&#xe967;" d="M1024 448c0-282.77-229.23-512-512-512s-512 229.23-512 512c0 282.77 229.23 512 512 512s512-229.23 512-512z" />
<glyph unicode="&#xe968;" d="M416.009 790.238h-40.479v27.426c11 0 19.873 0.953 26.546 2.787s12.026 4.987 15.986 9.313c3.96 4.327 7.48 10.633 10.56 18.846h26.033v-246.394h-38.719v188.022z" />
<glyph unicode="&#xe969;" d="M514.42 614.609c-9.753 10.56-14.593 25.666-14.593 45.392v20.093h36.592v-21.853c0-16.206 6.673-24.273 20.093-24.273 6.6 0 11.586 2.053 14.96 6.16s5.133 11.293 5.133 21.633v20.093c0 11.293-1.98 19.286-6.013 24.126-3.96 4.84-10.413 7.186-19.359 7.186h-13.053v35.199h14.080c7.773 0 13.566 1.98 17.453 6.013 3.887 3.96 5.793 10.706 5.793 20.093v17.966c0 8.433-1.76 14.666-5.28 18.626s-8.213 6.013-14.080 6.013c-12.466 0-18.626-7.626-18.626-22.879v-16.206h-36.666v13.053c0 19.726 4.84 34.832 14.593 45.392s23.759 15.84 42.092 15.84c18.553 0 32.632-5.207 42.239-15.693 9.606-10.413 14.446-25.519 14.446-45.245v-8.8c0-13.346-2.2-24.126-6.673-32.192s-11.366-13.933-20.753-17.453v-0.733c10.12-3.74 17.38-9.826 21.853-18.333 4.473-8.433 6.673-19.213 6.673-32.412v-21.853c0-19.726-4.913-34.832-14.593-45.245-9.753-10.413-24.126-15.693-43.119-15.693s-33.512 5.427-43.192 15.986z" />
<glyph unicode="&#xe96a;" d="M825.638 307.35c-22.513 31.606-124.297 157.663-313.565 157.663s-291.126-126.057-313.638-157.663c-0.953-1.393-1.76-2.493-2.42-3.52 0.66-1.027 1.467-2.2 2.42-3.52 22.513-31.533 124.37-157.589 313.638-157.589s291.052 126.057 313.565 157.589c1.027 1.393 1.833 2.493 2.42 3.52-0.66 0.953-1.467 2.127-2.42 3.52zM406.476 385.228c1.687 2.493 7.333 9.68 8.066 10.56 1.467 1.907 4.327 2.273 6.38 2.64 1.98 0.367 4.693-0.733 4.987-2.273 0.367-1.54-0.807-7.406-1.76-8.36-2.787-2.86-9.973-6.966-14.006-6.307-3.080 0.44-4.253 2.86-3.667 3.74zM399.656 371.809c0.293 0.367 0.587 0.66 0.66 0.807 2.347 2.713 7.113 3.3 10.413 3.813 3.3 0.587 7.626-1.1 8.213-3.3s-8.213-6.16-9.826-7.626c-4.547-4.18-11.66-12.76-15.84-13.64-1.393-0.293-2.493-0.073-3.373 0.367 2.713 6.746 5.94 13.346 9.753 19.579zM470.494 226.466c-2.567-10.12-5.573-13.713-8.066-16.866-2.567-3.227-12.026-7.333-17.966-6.893-6.013 0.44-6.82 16.426-6.82 24.713 0 2.86-4.033-5.573-6.16 11.513-1.32 11-8.36-1.173-8.873 6.16s-4.033 5.867-7.7 10.413c-3.667 4.547-8.286-0.44-13.42-2.713s-3.007-3.447-10.266-1.173c-0.147 0.073-0.293 0.147-0.44 0.22-6.673 15.766-10.34 33.146-10.34 51.332 0 4.473 0.22 8.8 0.66 13.126 0.22 0.44 0.513 0.88 0.807 1.247 6.893 8.14 6.746 10.12 6.746 10.12l7.7 2.64c0 0 12.32-1.907 21.559-5.427 7.626-2.86 19.653-9.313 26.693-6.453 5.060 2.053 9.020 4.84 8.58 9.093-0.587 5.28-4.767 6.526-9.753 3.007-1.833-1.32-5.793 7.993-8.946 7.48-3.080-0.44 3.813-10.926 1.247-11.366-2.64-0.44-7.92 10.853-8.873 12.686-0.88 1.833-4.987 6.38-8.653 2.933-7.773-7.406-20.386-6.966-22.953-8.873-7.7-5.793-9.753 1.907-9.606 6.6 0.293 1.1 0.66 2.127 0.953 3.227 2.493 2.787 11.586 3.667 14.666 1.613 3.447-2.273 5.867 0.587 7.186 1.98 1.32 1.32 0.88 3.52 0 5.353s1.687 3.153 3.447 3.667c1.76 0.513 7.626 4.62 9.973 5.94s14.593 2.86 20.019 0.147c5.5-2.787 10.486-0.513 13.126 2.64 3.373 3.96 7.626 7.040 9.533 7.993 1.907 0.88-4.693 7.040-10.12 0.367s-8.213-7.333-10.78-7.333c-2.567 0-17.746 3.813-19.653 8.58-1.833 4.84 4.767 8.433 10.413 11.146 5.647 2.64 20.973 2.64 24.933 3.52 7.993 1.76 18.186 5.793 23.393 2.273 5.133-3.447-21.486-9.533-12.76-14.226 3.080-1.687 17.16 8.066 21.999 10.633 11.366 5.867-11 7.773-8.066 19.653 3.3 13.42-27.426 8.213-42.679 7.113 20.533 13.126 44.879 20.753 70.985 20.753 62.185 0 114.324-43.119 128.183-101.051 0.073-2.86-0.367-4.913-0.66-6.087-1.173-4.767-10.193-8.8-15.473-1.173-1.32 1.907-6.966 7.26-6.82-1.833 0.147-9.166 8.873-10.046 0.44-15.546s-9.973-4.18-13.86-5.573c-3.887-1.393-7.626-10.78-6.746-15.84 0.953-5.060 12.98-18.773 4.033-18.26-2.053 0.147-17.82 10.926-20.459 17.82-2.713 7.26-5.72 14.446-7.846 19.873-2.127 5.5-7.7 6.893-12.393 3.667s1.32-6.453-2.053-13.273c-3.373-6.82-5.793-12.98-10.706-7.333-12.833 14.74-31.606 7.48-34.539 23.906-1.54 8.873-9.24 8.066-15.62 13.053-6.453 4.987-10.046 7.773-11.073 4.107-0.953-3.227 20.166-19.946 21.633-24.199 2.2-6.38-6.307-12.026-12.613-13.493-6.233-1.467-9.020 3.52-15.106 9.9-6.16 6.38-8.873 10.926-9.24 5.94-0.587-7.26 5.793-17.893 12.1-21.853 5.353-3.373 11.293-4.913 9.606-10.413-1.76-5.5-0.073-2.42-6.013-8.286-6.013-5.94-7.113-7.846-6.673-16.060s-1.687-8.726-3.007-15.546c-1.247-6.893-4.18-0.953-6.82-11zM611.951 279.044c4.4 0.367 11.073-5.793 8.506-8.14s-9.24-1.467-12.54 1.1c-3.373 2.64 2.053 6.893 4.033 7.040zM606.378 283.078c-1.393 0.513-2.64 1.907-3.74 5.133s1.613 5.060 4.327 3.813c2.713-1.393 6.233-5.427 6.233-7.553-0.073-2.2-5.353-1.907-6.82-1.393zM548.152 283.298c-2.567-2.347-9.24-1.467-12.613 1.1-3.3 2.567 2.127 6.82 4.107 7.040 4.473 0.44 11.073-5.793 8.506-8.14zM494.327 257.118c-1.833-3.007-6.746-25.153-10.12-22.586s1.32 25.739 2.347 27.499c5.207 9.606 16.426 9.093 7.773-4.913zM512.22 171.174c-12.906 0-25.299 1.907-37.032 5.28-1.687 1.393-2.64 3.667-1.613 6.453 4.107 10.633 16.206 14.813 25.813 15.693 21.413 2.053 49.499-13.86 53.972-11.293s13.493 14.3 26.766 13.786c9.020-0.367 8.946-1.833 12.026-3.007-22.146-16.793-49.865-26.913-79.931-26.913zM605.278 209.6c-1.32 0.367-2.713 0.807-4.18 1.54-7.186 3.667-6.307-2.2-9.9-0.88s3.96 9.533-6.673 2.567c-10.56-6.893-7.7 1.1-12.32 12.833-4.693 11.733 5.28 25.153 13.64 28.159 11.44 4.18 18.553 4.987 23.906 6.307 15.84 3.96 19.213 13.346 22.073 7.626 0.587-1.1 1.1-2.127 1.54-3.007 0.953-1.687 1.98-5.207 2.053-8.58-6.673-17.673-17.013-33.512-30.139-46.565zM641.357 276.184c-3.52 0.953-18.333 21.413-6.6 34.906 1.98 2.2-3.96 8.726-2.347 8.873 6.38 0.513 9.826-3.447 11.513-9.24 0.147-2.493 0.22-5.060 0.22-7.626 0-9.24-0.953-18.26-2.787-26.913z" />
<glyph unicode="&#xe96b;" d="M1024 448c0-282.77-229.23-512-512-512s-512 229.23-512 512c0 282.77 229.23 512 512 512s512-229.23 512-512z" />
<glyph unicode="&#xe96c;" d="M423.342 790.238h-40.479v27.426c11 0 19.873 0.953 26.546 2.787s12.026 4.987 15.986 9.313c3.96 4.327 7.48 10.633 10.56 18.846h26.033v-246.394h-38.719v188.022z" />
<glyph unicode="&#xe96d;" d="M574.698 646.948h-73.918v35.199l70.398 166.462h42.239v-166.462h18.333v-35.199h-18.333v-44.732h-38.719v44.732zM574.698 682.147v96.064h-0.733l-37.986-96.064h38.719z" />
<glyph unicode="&#xe96e;" d="M742.334 188.113c-10.78 14.52-80.225 103.104-177.609 103.104-84.551 0-175.042-76.705-175.042-76.705s-33.952 69.592-103.471 76.265c-0.44 0-0.88 0.073-1.32 0.073h-0.367c-1.467-0.073-2.787-1.467-2.64-2.787 0.22-1.247 1.1-2.567 1.1-2.567 8.946-14.886 31.826-57.199 31.826-99.511 0-42.386-23.026-84.844-31.899-99.657l-0.587-0.953c-0.293-0.44-0.44-0.88-0.44-1.467 0-1.467 1.173-2.567 2.567-2.713l0.733 0.073c0.22 0 0.513 0 0.733 0.073 69.738 6.526 103.837 76.265 103.837 76.265s90.418-76.705 175.042-76.705c97.384 0 166.829 88.584 177.609 103.031 0.293 0.367 0.513 0.733 0.733 1.027 0.147 0.367 0.22 0.66 0.22 1.027s-0.073 0.733-0.22 1.1c-0.293 0.293-0.513 0.66-0.807 1.027zM618.844 174.84c-15.693 0-28.453 12.76-28.453 28.453s12.686 28.379 28.453 28.379c15.766 0 28.453-12.686 28.453-28.379s-12.686-28.453-28.453-28.453z" />
<glyph unicode="&#xe96f;" d="M383.303 370.562c0.22 0.293 0.44 0.513 0.733 0.733 0.44 0.293 0.953 0.513 1.54 0.513 0.733 0 1.393-0.293 1.907-0.807 0-0.073 0.073-0.073 0.147-0.147 53.092-50.599 108.751-9.606 120.337 0l1.173 1.1c0.293 0.147 0.66 0.147 1.027 0.147 0.44 0 0.807-0.073 1.1-0.147l1.1-1.1c11.586-9.606 67.245-50.599 120.337 0 0 0 0.073 0.073 0.073 0.147 0.513 0.513 1.173 0.807 1.907 0.807 0.587 0 1.1-0.22 1.54-0.513 0.293-0.22 0.587-0.44 0.807-0.733 10.266-10.12 54.779-48.399 101.784-7.553 0.513 0.513 0.807 1.173 0.807 1.98v19.433c0 1.54-1.247 2.787-2.787 2.787-0.22 0-0.367-0.073-0.587-0.147-0.44-0.22-0.88-0.44-1.393-0.733-14.446-7.26-59.325-24.419-100.024 14.006-0.367 0.367-0.807 0.733-1.173 1.1-0.367 0.22-0.733 0.293-1.173 0.293-0.293 0-0.587-0.073-0.807-0.22-0.587-0.147-1.1-0.513-1.393-1.027-12.1-9.24-67.832-46.932-117.404-0.66l-0.733 0.733c-0.513 0.513-1.247 0.807-2.053 0.807-0.733 0-1.467-0.293-1.907-0.807l-0.733-0.733c-49.572-46.272-105.304-8.58-117.404 0.66-0.293 0.513-0.807 0.88-1.393 1.027-0.293 0.147-0.587 0.22-0.88 0.22-0.367 0-0.807-0.073-1.173-0.293-0.367-0.367-0.807-0.733-1.247-1.1-40.699-38.426-85.504-21.266-99.951-14.006-0.513 0.22-0.953 0.513-1.393 0.733-0.22 0-0.367 0.147-0.513 0.147-1.54 0-2.787-1.247-2.787-2.787v-19.433c0-0.807 0.293-1.467 0.807-1.98 47.005-40.919 91.518-2.567 101.784 7.553z" />
<glyph unicode="&#xe970;" d="M284.013 457.606c-0.22 0.073-0.367 0.147-0.513 0.147-1.54 0-2.787-1.247-2.787-2.787v-19.359c0-0.807 0.293-1.54 0.807-1.98 47.005-40.846 91.518-2.567 101.784 7.553 0.22 0.293 0.44 0.587 0.733 0.807 0.44 0.293 0.953 0.513 1.54 0.513 0.733 0 1.393-0.293 1.907-0.733 0.073-0.073 0.073-0.073 0.147-0.147 53.092-50.672 108.751-9.606 120.337 0l1.1 1.027c0.293 0.147 0.66 0.22 1.027 0.22s0.807-0.073 1.1-0.22l1.173-1.027c11.586-9.606 67.245-50.672 120.337 0 0 0 0.073 0.073 0.073 0.147 0.513 0.44 1.173 0.733 1.907 0.733 0.587 0 1.1-0.22 1.54-0.513 0.293-0.22 0.513-0.513 0.807-0.807 10.266-10.12 54.779-48.399 101.784-7.553 0.513 0.44 0.807 1.173 0.807 1.98v19.359c0 1.54-1.247 2.787-2.787 2.787-0.22 0-0.367-0.073-0.587-0.147-0.44-0.22-0.88-0.513-1.393-0.733-14.446-7.26-59.325-24.493-100.024 14.080-0.367 0.367-0.807 0.733-1.173 1.173-0.367 0.147-0.733 0.22-1.173 0.22-0.293 0-0.587-0.073-0.807-0.147-0.587-0.22-1.1-0.66-1.393-1.1-12.173-9.24-67.832-46.932-117.404-0.66l-0.733 0.733c-0.513 0.44-1.247 0.807-1.98 0.807s-1.467-0.367-1.907-0.807l-0.807-0.733c-49.572-46.272-105.304-8.58-117.404 0.66-0.293 0.44-0.807 0.88-1.393 1.1-0.293 0.073-0.587 0.147-0.88 0.147-0.367 0-0.807-0.073-1.173-0.22-0.367-0.44-0.807-0.807-1.173-1.173-40.699-38.499-85.504-21.266-100.024-14.080-0.44 0.22-0.953 0.513-1.393 0.733z" />
<glyph unicode="&#xe971;" d="M1024 448c0-282.77-229.23-512-512-512s-512 229.23-512 512c0 282.77 229.23 512 512 512s512-229.23 512-512z" />
<glyph unicode="&#xe972;" d="M416.009 790.238h-40.479v27.426c11 0 19.873 0.953 26.546 2.787s12.026 4.987 15.986 9.313c3.96 4.327 7.48 10.633 10.56 18.846h26.033v-246.394h-38.719v188.022z" />
<glyph unicode="&#xe973;" d="M516.327 614.756c-9.826 10.706-14.813 25.959-14.813 45.905v19.359h36.592v-22.146c0-15.986 6.673-23.906 20.093-23.906s20.093 7.993 20.093 23.906v55.292c0 16.206-6.673 24.273-20.093 24.273s-20.093-8.066-20.093-24.273v-2.127h-36.592l7.040 137.643h102.077v-35.199h-67.612l-3.080-58.812h0.733c7.26 11.953 18.406 17.966 33.439 17.966 14.080 0 24.786-4.84 32.046-14.446s10.926-23.613 10.926-41.872v-55.585c0-19.946-4.913-35.272-14.813-45.905-9.826-10.706-24.199-15.986-42.972-15.986-18.773-0.073-33.146 5.207-42.972 15.913z" />
<glyph unicode="&#xe974;" d="M449.815 276.258c0.953 0 1.687-0.733 1.687-1.687v-56.025c0-0.953-0.733-1.687-1.687-1.687h-22.659c-0.953 0-1.687 0.733-1.687 1.687v56.025c0 0.953 0.733 1.687 1.687 1.687h22.659z" />
<glyph unicode="&#xe975;" d="M698.775 192.807h-373.55c-0.953 0-1.687-0.807-1.687-1.76v-22.806c0-0.953 0.807-1.687 1.687-1.687h373.624c0.953 0 1.687 0.733 1.687 1.687v22.806c0 0.953-0.807 1.76-1.76 1.76z" />
<glyph unicode="&#xe976;" d="M698.775 147.414h-373.55c-0.953 0-1.687-0.733-1.687-1.687v-22.953c0-0.88 0.807-1.687 1.687-1.687h373.624c0.953 0 1.687 0.733 1.687 1.687v22.953c0 0.953-0.807 1.687-1.76 1.687z" />
<glyph unicode="&#xe977;" d="M627.717 338.296c-4.693 3.667-17.086 12.173-32.339 12.173-10.853 0-20.973-4.253-29.993-12.76-0.66-0.587-1.027-1.467-1.027-2.347v-2.053c0-1.027 0.367-1.907 1.027-2.567 0.807-0.587 1.687-0.88 2.64-0.587 0.22 0 0.44 0.073 0.66 0.147 0.66 0.22 1.32 0.66 1.907 1.173 1.98 1.32 7.333 3.080 14.96 3.080 7.92 0 23.466-2.127 38.499-16.133l0.367-0.293c0.807-0.88 1.98-1.32 3.227-1.32 1.173 0 2.42 0.513 3.153 1.32l0.293 0.293c15.106 14.006 30.653 16.133 38.572 16.133 7.7 0 13.053-1.833 15.033-3.080 0.513-0.513 1.173-0.953 2.053-1.247 0.293-0.073 1.247-0.293 2.2-0.073 1.393 0.367 2.347 1.613 2.347 3.080v1.833c0 0.88-0.367 1.687-1.027 2.347-9.093 8.653-19.359 13.126-30.359 13.126-14.96-0.073-27.426-8.433-32.192-12.246z" />
<glyph unicode="&#xe978;" d="M604.544 487.232c-0.807-0.367-1.393-1.1-1.613-1.98l-0.367-1.247c-0.293-0.953-0.073-1.98 0.513-2.787 0.587-0.733 1.393-1.247 2.273-1.247 0.147 0 0.367-0.073 0.44 0 0.66 0 1.247 0.147 1.833 0.44 0.293 0.073 1.027 0.293 2.273 0.293 1.687 0 16.72-0.513 26.693-17.453l0.147-0.22c0.513-0.953 1.393-1.613 2.42-1.907 0.293-0.073 0.88-0.22 1.173-0.22 0.66 0 1.393 0.22 1.907 0.44l0.22 0.147c5.427 2.713 11.073 4.107 16.646 4.107 9.46 0 15.62-3.887 17.013-5.427 0.293-0.587 0.733-1.027 1.247-1.393 0.293-0.147 0.88-0.44 1.247-0.587 0.147-0.073 0.367-0.073 0.513-0.073 0.073 0 0.22 0 0.367 0 0.513 0 1.027 0.147 1.467 0.367 0.733 0.367 1.32 1.1 1.613 1.907l0.293 1.1c0.073 0.293 0.147 0.587 0.147 0.88 0 0.587-0.147 1.173-0.44 1.613-7.26 12.613-17.82 15.253-25.373 15.253-5.647 0-10.56-1.467-13.42-2.493-3.447 4.62-12.1 14.080-25.226 14.080-4.62-0.073-9.313-1.247-14.006-3.593z" />
<glyph unicode="&#xe979;" d="M525.566 429.74l0.147-1.687c0.073-1.027 0.587-1.98 1.467-2.493 0.733-0.44 1.687-0.587 2.493-0.367 0.147 0.073 0.367 0.147 0.513 0.147 0.66 0.293 1.173 0.66 1.613 1.173 1.613 1.173 6.746 3.227 14.226 3.227 7.26 0 18.26-1.907 29.553-11.146l0.293-0.293c0.807-0.66 1.833-1.1 2.86-1.1h0.293c1.173 0.073 2.273 0.66 2.933 1.393l0.22 0.293c12.466 13.2 25.886 15.18 32.779 15.18 4.913 0 8.36-1.027 9.753-1.76 0.513-0.44 1.173-0.807 1.98-1.027 0.22-0.073 0.807-0.147 1.393-0.073 0.22 0 0.513 0.147 0.807 0.22 1.32 0.44 2.2 1.76 2.127 3.227l-0.073 1.467c-0.073 0.88-0.44 1.687-1.1 2.2-7.406 6.233-15.473 9.386-23.906 9.386-13.126 0-23.613-7.773-27.939-11.586-3.96 2.713-13.64 8.286-24.933 8.286-9.973 0-18.846-4.107-26.473-12.246-0.733-0.733-1.027-1.54-1.027-2.42z" />
<glyph unicode="&#xe97a;" d="M336.518 399.748c0 22.366 18.113 40.479 40.479 40.479 0.88 0 1.76-0.073 2.567-0.147 2.127 28.306 25.739 50.672 54.559 50.672 30.286 0 54.779-24.566 54.779-54.779 0-8.58-2.053-16.646-5.5-23.906 27.426-6.087 47.959-30.506 47.959-59.765 0-33.806-27.426-61.232-61.232-61.232-2.493 0-81.765 0.513-81.765 0.513-23.979 0-43.339 19.433-43.339 43.339 0 11.513 4.547 21.926 11.806 29.699-12.1 6.966-20.313 20.019-20.313 35.126z" />
<glyph unicode="&#xe97b;" d="M1024 448c0-282.77-229.23-512-512-512s-512 229.23-512 512c0 282.77 229.23 512 512 512s512-229.23 512-512z" />
<glyph unicode="&#xe97c;" d="M423.342 790.238h-40.479v27.426c11 0 19.873 0.953 26.546 2.787s12.026 4.987 15.986 9.313c3.96 4.327 7.48 10.633 10.56 18.846h26.033v-246.394h-38.719v188.022z" />
</font>
</defs>
</svg>
